本站已运行

蓝光高清网

搜索
开启左侧

[惊悚] 卧底跑男 The.Runner.2021.1080p.BluRay.x264-UNVEiL 8.40GB

蓝鸟 发表于 2022-10-3 09:29:45 | 显示全部楼层 |阅读模式


标  题 卧底跑男
译  名 奔跑吧卧底
片  名 The Runner
年  代 2023
产  地 美国
类  别 惊悚
IMDb评分 5/10 (50人评价)
演  员 艾里克·巴弗尔 Eric Balfour
       伊丽莎白·霍尔姆 Elisabeth Röhm
       杰西卡·艾莉 Jessica Amlee
       克里·梅德斯 Kerri Medders
       纳吉·杰特 Nadji Jeter
       卡梅隆·道格拉斯 Cameron Douglas

简  介

After being busted for drug possession, Aiden, a troubled Teenager is forced by the cops to go undercover and risk his life to bring down a dangerous drug king pin.


影片参数
  1. Video
  2. ID                                       : 1
  3. Format                                   : AVC
  4. Format/Info                              : Advanced Video Codec
  5. Format profile                           : [email protected]
  6. Format settings                          : CABAC / 5 Ref Frames
  7. Format settings, CABAC                   : Yes
  8. Format settings, Reference frames        : 5 frames
  9. Codec ID                                 : V_MPEG4/ISO/AVC
  10. Duration                                 : 1 h 43 min
  11. Bit rate                                 : 9 618 kb/s
  12. Width                                    : 1 920 pixels
  13. Height                                   : 804 pixels
  14. Display aspect ratio                     : 2.40:1
  15. Frame rate mode                          : Constant
  16. Frame rate                               : 23.976 (24000/1001/189150) FPS
  17. Color space                              : YUV
  18. Chroma subsampling                       : 4:2:0
  19. Bit depth                                : 8 bits
  20. Scan type                                : Progressive
  21. Bits/(Pixel*Frame)                       : 0.260
  22. Stream size                              : 6.96 GiB (83%)
  23. Writing library                          : x264 core 164 r3098 7628a56
  24. Encoding settings                        : cabac=1 / ref=5 / deblock=1:-3:-3 / analyse=0x3:0x133 / me=umh / subme=9 / psy=1 / psy_rd=1.00:0.00 / mixed_ref=1 / me_range=16 / chroma_me=1 / trellis=2 / 8x8dct=1 / cqm=0 / deadzone=21,11 / fast_pskip=0 / chroma_qp_offset=-2 / threads=25 / lookahead_threads=2 / sliced_threads=0 / nr=0 / decimate=1 / interlaced=0 / bluray_compat=0 / constrained_intra=0 / bframes=3 / b_pyramid=2 / b_adapt=2 / b_bias=0 / direct=3 / weightb=1 / open_gop=0 / weightp=2 / keyint=250 / keyint_min=23 / scenecut=40 / intra_refresh=0 / rc_lookahead=60 / rc=crf / mbtree=1 / crf=15.0 / qcomp=0.60 / qpmin=0 / qpmax=69 / qpstep=4 / ip_ratio=1.40 / aq=1:1.00
  25. Language                                 : English
  26. Default                                  : Yes
  27. Forced                                   : No

  28. Audio
  29. ID                                       : 2
  30. Format                                   : DTS XLL
  31. Format/Info                              : Digital Theater Systems
  32. Commercial name                          : DTS-HD Master Audio
  33. Codec ID                                 : A_DTS
  34. Duration                                 : 1 h 43 min
  35. Bit rate mode                            : Variable
  36. Bit rate                                 : 2 001 kb/s
  37. Channel(s)                               : 6 channels
  38. Channel layout                           : C L R Ls Rs LFE
  39. Sampling rate                            : 48.0 kHz
  40. Frame rate                               : 93.750 FPS (512 SPF)
  41. Bit depth                                : 16 bits
  42. Compression mode                         : Lossless
  43. Stream size                              : 1.45 GiB (17%)
  44. Language                                 : English
  45. Default                                  : Yes
  46. Forced                                   : No

  47. Text
  48. ID                                       : 3
  49. Format                                   : PGS
  50. Muxing mode                              : zlib
  51. Codec ID                                 : S_HDMV/PGS
  52. Codec ID/Info                            : Picture based subtitle format used on BDs/HD-DVDs
  53. Duration                                 : 1 h 26 min
  54. Bit rate                                 : 407 b/s
  55. Count of elements                        : 32
  56. Stream size                              : 258 KiB (0%)
  57. Language                                 : German
  58. Default                                  : No
  59. Forced                                   : No

  60. Menu
  61. 00:00:00.000                             : en:Chapter 01
  62. 00:14:26.908                             : en:Chapter 02
  63. 00:22:25.261                             : en:Chapter 03
  64. 00:37:25.577                             : en:Chapter 04
  65. 00:47:47.948                             : en:Chapter 05
  66. 00:59:43.747                             : en:Chapter 06
  67. 01:12:55.788                             : en:Chapter 07
  68. 01:31:54.676                             : en:Chapter 08
复制代码



蓝光高清网提示您 点击下方附件即可下载

卧底跑男 The.Runner.2021.1080p.BluRay.x264-UNVEiL 8.40GB

The.Runner.2021.1080p.BluRay.x264-UNVEiL.torrent ( 21.8 KB )

加入蓝光高清网VIP会员  无限制下载本站所有资源---点这里

资源下载、资源播放、字幕使用、无法下载等常见问题---点这里
回复

使用道具 举报

全部回复1 显示全部楼层
wangzhang3手机认证 发表于 2022-10-3 12:08:12 | 显示全部楼层
楼主辛苦了,谢谢分享
回复 支持 反对

使用道具 举报

发表回复

您需要登录后才可以回帖 登录 | 立即注册

本版积分规则

开通会员 帮助中心 返回顶部 返回列表