本站已运行

蓝光高清网

搜索
开启左侧

[喜剧] 美女闯通关 Cool.World.1992.1080p.BluRay.x264-MiMiC 15.75GB

蓝鸟 发表于 2022-10-3 09:30:39 | 显示全部楼层 |阅读模式


标  题 美女闯通关
译  名 幻世空间
片  名 Cool World
年  代 1992
产  地 美国
类  别 喜剧 / 动画 / 奇幻
语  言 英语
上映日期 1992-12-24
IMDb评分 4.9/10 (22552人评价)
豆瓣评分 6.1/10 (537人评价)
片  长 102 分钟
导  演 拉尔夫·巴克希 Ralph Bakshi
演  员 加布里埃尔·伯恩 Gabriel Byrne
       金·贝辛格 Kim Basinger
       布拉德·皮特 Brad Pitt
       坎迪·米洛 Candi Milo
       麦琪·罗丝威尔 Maggie Roswell
       小弗兰克·辛纳特拉 Frank Sinatra Jr.
       迪尔德丽·奥康奈尔 Deirdre O''Connell
       凯文·杰克逊 Kevin L. Jackson
       Michael David Lally Michael David Lally
       凯莉·汉密尔顿 Carrie Hamilton
       威廉·弗兰克神父 William Frankfather
       格莱格·斯奈哥夫 Gregory Snegoff
       查尔斯·阿德勒 Charles Adler
       Stephen Worth Stephen Worth
       莫里斯·拉马奇 Maurice LaMarche
       保罗·本-维克托 Paul Ben-Victor
       格雷格·科林斯 Greg Collins
       Lorraine Cote Lorraine Cote
       詹尼·布伦 Janni Brenn
标  签 动画 / 美国 / 美国电影 / 美国动画 / BradPitt / 我真是什麼都看 / 1992 / 奇幻

简  介

杰克(加布里埃尔·伯恩 Gabriel Byrne 饰)是一名漫画家,却因为行差踏错而被关进了监狱。在铁窗后,杰克依靠着画漫画来派遣内心的痛苦,他创作了名为《冷酷世界》的连环画,并且在连环画里设置了一个名为霍利(金·贝辛格 Kim Basinger 饰)的反派女性角色。哪知道故事里的霍利竟然利用杰克来到了现实世界,而漫画里的另一个人物侦探弗兰克(布拉德·皮特 Brad Pitt 饰)则警告杰克一定不能受到霍利的诱惑爱上她,否则,现实和漫画这两个世界都将毁灭。                                                                      可是,霍利实在是魅力无穷,杰克不由自主的深深被她吸引,坠入爱河。就这样,两人在拉斯维加斯展开了一场精彩绝伦的拉锯战。


影片参数
  1. Video
  2. ID                                       : 1
  3. Format                                   : AVC
  4. Format/Info                              : Advanced Video Codec
  5. Format profile                           : [email protected]
  6. Format settings                          : CABAC / 4 Ref Frames
  7. Format settings, CABAC                   : Yes
  8. Format settings, Reference frames        : 4 frames
  9. Codec ID                                 : V_MPEG4/ISO/AVC
  10. Duration                                 : 1 h 41 min
  11. Bit rate                                 : 19.2 Mb/s
  12. Width                                    : 1 920 pixels
  13. Height                                   : 1 040 pixels
  14. Display aspect ratio                     : 1.85:1
  15. Frame rate mode                          : Constant
  16. Frame rate                               : 23.976 (24000/1001/189150) FPS
  17. Color space                              : YUV
  18. Chroma subsampling                       : 4:2:0
  19. Bit depth                                : 8 bits
  20. Scan type                                : Progressive
  21. Bits/(Pixel*Frame)                       : 0.402
  22. Stream size                              : 13.6 GiB (87%)
  23. Writing library                          : x264 core 164 r3100 ed0f7a6
  24. Encoding settings                        : cabac=1 / ref=4 / deblock=1:0:0 / analyse=0x3:0x133 / me=umh / subme=9 / psy=1 / psy_rd=1.00:0.00 / mixed_ref=1 / me_range=16 / chroma_me=1 / trellis=2 / 8x8dct=1 / cqm=0 / deadzone=21,11 / fast_pskip=0 / chroma_qp_offset=-2 / threads=32 / lookahead_threads=2 / sliced_threads=0 / nr=0 / decimate=0 / interlaced=0 / bluray_compat=0 / constrained_intra=0 / bframes=3 / b_pyramid=2 / b_adapt=2 / b_bias=0 / direct=3 / weightb=1 / open_gop=0 / weightp=2 / keyint=240 / keyint_min=23 / scenecut=40 / intra_refresh=0 / rc=crf / mbtree=0 / crf=19.0 / qcomp=0.60 / qpmin=0 / qpmax=69 / qpstep=4 / ip_ratio=1.40 / pb_ratio=1.30 / aq=1:1.00
  25. Default                                  : Yes
  26. Forced                                   : No
  27. Color range                              : Limited
  28. Matrix coefficients                      : BT.709

  29. Audio
  30. ID                                       : 2
  31. Format                                   : DTS XLL
  32. Format/Info                              : Digital Theater Systems
  33. Commercial name                          : DTS-HD Master Audio
  34. Codec ID                                 : A_DTS
  35. Duration                                 : 1 h 41 min
  36. Bit rate mode                            : Variable
  37. Bit rate                                 : 2 929 kb/s
  38. Channel(s)                               : 6 channels
  39. Channel layout                           : C L R Ls Rs LFE
  40. Sampling rate                            : 48.0 kHz
  41. Frame rate                               : 93.750 FPS (512 SPF)
  42. Bit depth                                : 24 bits
  43. Compression mode                         : Lossless
  44. Stream size                              : 2.08 GiB (13%)
  45. Language                                 : English
  46. Default                                  : Yes
  47. Forced                                   : No

  48. Text
  49. ID                                       : 3
  50. Format                                   : PGS
  51. Muxing mode                              : zlib
  52. Codec ID                                 : S_HDMV/PGS
  53. Codec ID/Info                            : Picture based subtitle format used on BDs/HD-DVDs
  54. Duration                                 : 1 h 41 min
  55. Bit rate                                 : 39.8 kb/s
  56. Count of elements                        : 2634
  57. Stream size                              : 28.8 MiB (0%)
  58. Language                                 : English
  59. Default                                  : No
  60. Forced                                   : No

  61. Menu
  62. 00:00:00.000                             : en:Chapter 01
  63. 00:07:50.804                             : en:Chapter 02
  64. 00:15:09.033                             : en:Chapter 03
  65. 00:23:34.288                             : en:Chapter 04
  66. 00:31:45.904                             : en:Chapter 05
  67. 00:40:57.664                             : en:Chapter 06
  68. 00:48:39.125                             : en:Chapter 07
  69. 00:58:13.323                             : en:Chapter 08
  70. 01:07:52.360                             : en:Chapter 09
  71. 01:20:09.722                             : en:Chapter 10
  72. 01:29:15.809                             : en:Chapter 11
  73. 01:36:56.894                             : en:Chapter 12
复制代码



蓝光高清网提示您 点击下方附件即可下载

美女闯通关 Cool.World.1992.1080p.BluRay.x264-MiMiC 15.75GB

Cool.World.1992.1080p.BluRay.x264-MiMiC.torrent ( 20.4 KB )

加入蓝光高清网VIP会员  无限制下载本站所有资源---点这里

资源下载、资源播放、字幕使用、无法下载等常见问题---点这里
回复

使用道具 举报

全部回复1 显示全部楼层
wangzhang3手机认证 发表于 2022-10-3 12:07:53 | 显示全部楼层
支持发片,谢谢分享
回复 支持 反对

使用道具 举报

发表回复

您需要登录后才可以回帖 登录 | 立即注册

本版积分规则

开通会员 帮助中心 返回顶部 返回列表