本站已运行

蓝光高清网

搜索
开启左侧

尚气与十环传奇 Shang-Chi.and.the.Legend.of.the.Ten.Rings.2021.1080p.3D.BluRay.Half-SBS.x264.TrueHD.7.1.Atmos-3D电影下载

蓝鸟 发表于 2022-10-26 10:47:45 | 显示全部楼层 |阅读模式
尚气与十环传奇 豆瓣评分: 6.1分
片长: 132分钟 ( 2021年上映)
类型:动作 科幻 奇幻 冒险 
导演:德斯汀·克里顿
主演:刘思慕 / 梁朝伟 / 奥卡菲娜 / 张梦儿 / 陈法拉
3 D 格式:half-ou sbs 

封装音轨:DTS-HD.MA 7.1 Dolby TrueHD 7.1 Dolby Atmos 
简       介" M" m6 W' d2 H8 `2 K
0 n/ g2 `6 M, C2 ^6 B: L2 e
  故事发生在《复仇者联盟4:终局之战》事件之后,尚气(刘思慕 饰)自幼接受父亲(梁朝伟 饰)的铁血战斗培训,精通各种武术招式。长大后为了逃离家乡,他改名换姓展开新生活,认识了新挚友凯蒂(奥卡菲娜 饰),平静日子就这样过了十年,直到过去再度找上门……
0 K( b& z# z" s6 e/ T3 d( U+ ]) N) Z0 b
获奖情况 (共4项)2 l) J' @& k( `: y
  第94届奥斯卡金像奖 (2022)
+ B6 i+ e7 e3 m; n& X7 q  最佳视觉效果(提名)/ f# g8 _- o! b: o: v
  第28届美国演员工会奖 (2022)- C- n" p  s, ]' K& f! F
  电影最佳特技群戏(提名)1 s4 i% t% w! L; D9 b: o# J
  第24届美国服装设计工会奖 (2022)
9 S0 _/ S, r, W# V1 X  科幻/奇幻题材电影最佳服装设计(提名)5 E+ E; I' U- [" p
   └──凯姆·巴雷特 (id:1277971)0 M8 w  p6 @" _! H9 X
  第27届美国评论家选择电影奖 (2022)
+ y' f: A! }( `* e* i  O( m5 ^3 c6 U% D  最佳视觉效果(提名); w" C3 ~' }: D) ~  Q$ e! K6 i

3 K* T  h. G: g) K0 k3 A影片参数
0 [, B& d, z7 u$ W6 c4 s' |0 a
Video" d' N" W/ F+ X6 S7 {5 m% y1 i% V/ P
ID                                       : 1
) _0 {8 s0 ~6 E6 h1 hFormat                                   : AVC, Q, x7 @7 j9 o* M& P0 s
Format/Info                              : Advanced Video Codec/ k- z2 R8 P( H. W9 m6 C
Format profile                           : [email protected]/ ^) q6 V% p  {) M8 L
Format settings                          : CABAC / 2 Ref Frames7 J; L, z: O( d) N
Format settings, CABAC                   : Yes8 K! I5 l, d2 q1 \& Z8 C
Format settings, Reference frames        : 2 frames! X2 e0 D$ E( W, S( b
Codec ID                                 : V_MPEG4/ISO/AVC
$ y; e/ H6 @" xDuration                                 : 2 h 12 min
; v# E3 f! C4 U7 p. n: T" {Bit rate                                 : 14.7 Mb/s  o$ z. X! v1 f9 d. n# Z- V
Nominal bit rate                         : 16.0 Mb/s$ D' I. Q$ C# X7 F9 W
Width                                    : 1 920 pixels8 d" T9 r& m  x; k* j; S
Height                                   : 1 080 pixels
6 i7 F) G9 b+ N% p/ D: MDisplay aspect ratio                     : 16:9* U3 L# I) g& d6 D0 Q+ q( ~) R/ _
Frame rate mode                          : Constant
  h) }% t1 J3 Y$ w5 VFrame rate                               : 23.976 (24000/1001/189150) FPS6 z2 _. V0 Z: g) y. k) H. C
Color space                              : YUV) T8 N2 U, p7 G5 i
Chroma subsampling                       : 4:2:0
8 Y* H2 p8 ]2 K$ N: J1 JBit depth                                : 8 bits. c4 f2 J; a6 k# @
Scan type                                : Progressive! a6 e9 W6 m; [: O* @
Bits/(Pixel*Frame)                       : 0.296$ a2 C' _1 a& K+ @
Stream size                              : 13.6 GiB (71%)7 J& s6 c$ L- F) O# u8 {
Writing library                          : x264 core 148
1 p0 J% O6 v- `! F! ]. |; F" xEncoding settings                        : cabac=1 / ref=1 / deblock=1:-1:-1 / analyse=0x3:0 / me=hex / subme=5 / psy=0 / mixed_ref=0 / me_range=16 / chroma_me=1 / trellis=0 / 8x8dct=1 / cqm=0 / deadzone=21,11 / fast_pskip=0 / chroma_qp_offset=0 / threads=48 / lookahead_threads=8 / sliced_threads=0 / nr=0 / decimate=1 / interlaced=0 / bluray_compat=0 / constrained_intra=0 / bframes=2 / b_pyramid=0 / b_adapt=1 / b_bias=0 / direct=1 / weightb=0 / open_gop=0 / weightp=0 / keyint=24 / keyint_min=13 / scenecut=40 / intra_refresh=0 / rc_lookahead=24 / rc=cbr / mbtree=0 / bitrate=16000 / ratetol=1.0 / qcomp=0.60 / qpmin=0 / qpmax=69 / qpstep=4 / vbv_maxrate=16000 / vbv_bufsize=16000 / nal_hrd=none / filler=0 / ip_ratio=1.40 / pb_ratio=1.30 / aq=1:1.00
# ]+ ~8 A# B  y1 F3 P$ _# lDefault                                  : Yes
- e7 L, @* I% e% I! @7 m9 D* DForced                                   : No
5 {3 R3 D+ c) l% \) xColor range                              : Limited! U% ~3 g! \4 L' J
Color primaries                          : BT.709! i" Q3 H$ }! _( F8 z2 R" Y1 o! o
Transfer characteristics                 : BT.709
6 w: a+ ~7 Q) W) OMatrix coefficients                      : BT.709
' K4 }/ \# ~) N9 _+ T/ c, m1 yAudio #1+ l" \7 }$ S9 P, c. j# q
ID                                       : 2
, F" H/ A3 b4 E; e# k6 P: dFormat                                   : DTS XLL* P6 m- f/ H& ]9 v% n9 X5 v
Format/Info                              : Digital Theater Systems3 ~4 U5 y  |& T, P
Commercial name                          : DTS-HD Master Audio
8 d& T& A, [! L3 uCodec ID                                 : A_DTS
( i* G- n0 q& w0 n$ FDuration                                 : 2 h 12 min" H. v& t1 @. z* w
Bit rate mode                            : Variable& q3 @& V, |8 I+ }
Bit rate                                 : 3 960 kb/s3 L2 d. B, |. p1 Z6 Y
Channel(s)                               : 8 channels
7 u/ z+ r5 Y6 fChannel layout                           : C L R LFE Lb Rb Lss Rss4 t9 ?. F+ a) Q+ r
Sampling rate                            : 48.0 kHz
$ O8 W- l! N# G8 D% H4 T' a" t  xFrame rate                               : 93.750 FPS (512 SPF)
& @! ?! b( Y3 |6 ~8 v2 k0 l; cBit depth                                : 24 bits: g8 I$ v% d' U$ V, x' G
Compression mode                         : Lossless
2 \% q, _! i9 o7 i5 E- y( W( UStream size                              : 3.66 GiB (19%)! i* S$ M4 e# L" `& S" I
Title                                    : DTS-HD MA 7.1
5 b+ [$ ?) R/ j9 fLanguage                                 : English
: }1 K7 J  P0 U! \Default                                  : Yes
; ?* t6 `9 U1 `% _Forced                                   : No" d. }( _7 q" O# |: Y  R
Audio #25 s# d1 ]8 D+ y
ID                                       : 34 I7 b  P$ r) Z& N9 a' A
Format                                   : DTS XBR, o0 h. d# e: r. }( l
Format/Info                              : Digital Theater Systems' v, \4 d. a, v& k+ p
Commercial name                          : DTS-HD High Resolution Audio
$ N6 E9 n2 n9 c3 C# u7 V& jCodec ID                                 : A_DTS
$ P% ^/ F* D+ T! J7 K, ZDuration                                 : 2 h 12 min1 ^- z% y5 S: ^$ t0 S0 w. ~- J
Bit rate mode                            : Constant4 s# N+ r4 V" t0 ~9 X
Bit rate                                 : 2 046 kb/s0 [, r, M1 a) z0 i# D
Channel(s)                               : 8 channels6 h; g- r5 }+ P# ^
Channel layout                           : C L R LFE Lb Rb Lss Rss" E! L- \2 T- R& R- k/ j- ]
Sampling rate                            : 48.0 kHz: J2 m- e3 p8 ]1 }& U
Frame rate                               : 93.750 FPS (512 SPF)
! `, ^3 y3 y! O1 t- rBit depth                                : 24 bits- {6 S) D# f# a$ e. ^
Compression mode                         : Lossy7 j/ ?! P+ h: C1 n) f% z" C/ q
Stream size                              : 1.89 GiB (10%)
: i& O5 j$ t8 n8 m+ m# rTitle                                    : DTS-HR 5.1
1 E; Z5 `: [3 v- R( C' S- a' gLanguage                                 : Japanese" i) p2 h/ j7 G, _  \
Default                                  : No& i* v* p! x8 A
Forced                                   : No
; x. B0 T- f- x1 tText #18 j8 [* i% w; ~7 G4 u- m  q
ID                                       : 47 e1 ]8 L0 H( S. o% Q- o
Format                                   : PGS* o: f1 \# P; @7 d; g
Muxing mode                              : zlib
4 f5 u' s9 C$ g( H3 H) e5 f3 ACodec ID                                 : S_HDMV/PGS5 p, \& O: t# k' U- i5 l8 D$ c+ v. B
Codec ID/Info                            : Picture based subtitle format used on BDs/HD-DVDs
* S: b" e1 e; _# w4 x) QDuration                                 : 1 h 55 min, c, F9 j3 N* o; l1 B8 Y* f
Bit rate                                 : 4 992 b/s
% Q) s1 O! Z/ p) L* gFrame rate                               : 0.053 FPS
% U. E, U. y: Y  G4 YCount of elements                        : 3706 N, Q/ }5 G9 N, {, a
Stream size                              : 4.14 MiB (0%)- M4 ?3 w( J% g, k; |# j( s
Title                                    : FORCED
0 I" K* w! Q+ |0 |( F* K. ^5 ?* u& CLanguage                                 : English
7 u4 k- I' t% T& C! DDefault                                  : No+ W, b& a" i  J# U7 E+ M$ l# g
Forced                                   : Yes& }7 T5 I& T$ B' O) ~
Text #2
# G" d9 j5 D! Z5 OID                                       : 5
; x) h4 m2 N8 o( ?" {  X$ j- tFormat                                   : PGS
" w" q' O; c; l& S( L$ aMuxing mode                              : zlib3 h. Q3 a7 A6 z& H4 Y2 n6 I
Codec ID                                 : S_HDMV/PGS) @8 ^/ P+ ], V1 a+ O. P- U
Codec ID/Info                            : Picture based subtitle format used on BDs/HD-DVDs/ E' m' j/ j. G+ Z" X0 [
Duration                                 : 2 h 10 min+ u$ M6 C' ]$ ^" W" d; ~
Bit rate                                 : 30.4 kb/s( o+ G; {* z; ^0 ?
Frame rate                               : 0.288 FPS' h& q- e% Q; M/ {. T$ |" w: D
Count of elements                        : 2262$ U" U: ]( n4 ?3 m  F1 P7 c
Stream size                              : 28.4 MiB (0%)7 y' J8 y, q; _3 M; l: x
Language                                 : English
* r8 u- A  V% ^/ E" x' @Default                                  : Yes
. O6 y# L# x8 A0 E, C( [! q7 J/ A. n( ^Forced                                   : No
) c. A4 }* o! P' t* iText #3
& D/ j$ b- n" W: uID                                       : 66 F! ]& ~2 _7 F; c" v% \* ^" ?
Format                                   : PGS; s3 S9 u3 a: d  j8 R- c
Muxing mode                              : zlib
* e9 o) u7 T' C- _% ~- {Codec ID                                 : S_HDMV/PGS& P/ H. s. P. l$ c' c
Codec ID/Info                            : Picture based subtitle format used on BDs/HD-DVDs& T) A0 v, {' A' ?
Duration                                 : 2 h 11 min7 h. X( i! o: a/ n, M  g8 h
Bit rate                                 : 26.1 kb/s
( V: S' c' f" ^& bFrame rate                               : 0.269 FPS
- U* g% C' T5 I' e! [( Y7 ~, TCount of elements                        : 2122' E- e3 _6 G4 Y8 G
Stream size                              : 24.5 MiB (0%)
( i* t' W5 W' r; I$ v: {! [Language                                 : Japanese% u' @6 d& F0 b' I; X8 t1 i
Default                                  : No! H! p2 b$ Y! d3 q
Forced                                   : No' D$ x4 X# z/ J) I. l" g# ]
Menu3 c& J* \# @( G3 H( X8 _+ W
00:00:00.000                             : en:Chapter 01
9 i3 h# S! a( m00:03:52.857                             : en:Chapter 02
7 o& N; K; N( E0 a8 g00:09:28.985                             : en:Chapter 03
, E" \. j+ U. B  L$ P5 G0 _00:16:17.184                             : en:Chapter 04
# D3 |: P6 C& b00:22:47.491                             : en:Chapter 05
. z# M6 `8 G4 z2 [9 e* k00:31:59.667                             : en:Chapter 06
$ w- \" ~) J! G5 z/ K3 z5 B00:42:49.483                             : en:Chapter 07
# E2 L$ d7 w! X# S00:52:21.054                             : en:Chapter 08$ Q( `, n) O8 w: |) k
00:56:51.324                             : en:Chapter 09
$ U2 [4 {$ v/ L+ L. P01:00:35.006                             : en:Chapter 10$ l: |2 j6 A8 C, {3 r# S/ m
01:08:46.122                             : en:Chapter 111 q" K+ N- ?  A$ F% [' u' u
01:15:55.050                             : en:Chapter 12
3 [2 Y7 w" H' ]2 q  g01:19:51.286                             : en:Chapter 13
* ~" T# k7 ^) p4 i01:29:49.675                             : en:Chapter 14( c- t( K! D* |; d1 z& F8 W
01:36:45.800                             : en:Chapter 15
# ?  n) K8 N, q7 P7 |2 A01:47:00.622                             : en:Chapter 16; c9 A! [' a  y1 G% D
01:55:25.293                             : en:Chapter 17/ C. g( C7 E$ h; V% ^0 C7 ?  Y
02:00:07.241                             : en:Chapter 181 o3 ^5 _3 e* o% }+ c7 ^" F% I" ^
02:01:46.132                             : en:Chapter 197 h2 p. I( y1 `3 p4 K, U; G1 H" e
02:04:08.858                             : en:Chapter 20
  R0 N! G$ X1 e) M6 F, z. E, Z02:10:39.248                             : en:Chapter 21
; A2 d$ I- ?# f  I
蓝光高清网提示您 点击下方附件名称 即可开始下载8 p0 R. ~0 [! f' B9 ?
/ x; g$ U' o6 C. H* ?
多版本下载时请注意区分
( ~$ L9 L6 r5 Q" w* _4 k+ u2 Z* t: x8 y; A, `: D! E
尚气与十环传奇 Shang-Chi.and.the.Legend.of.the.Ten.Rings.2021.1080p.3D.BluRay.Half-SBS.x264.TrueHD.7.1.Atmos-3D电影下载
" s/ t7 ~5 b: m: [, }7 a& k! Y( P  v+ C) [/ m0 P% `2 S8 q, k3 S
尚气与十环传奇 Shang-Chi.and.the.Legend.of.the.Ten.Rings.2021.1080p.3D.BluRay.Half-OU.x264.DTS-HD.MA.7.1-FGT 19.18GB
/ w3 H: l  l& }- E( ]$ v

Shang-Chi.and.the.Legend.of.the.Ten.Rings.2021.1080p.3D.BluRay.Half-OU.x264.DTS-.torrent ( 24.69 KB )


# B' X: w1 S. P
1 x% r. l' N+ d8 G9 V) r8 Z尚气与十环传奇 Shang-Chi.and.the.Legend.of.the.Ten.Rings.2021.1080p.3D.BluRay.Half-OU.x264.TrueHD.7.1.Atmos-FGT 20.07GB: m8 d+ c. B  p5 S# q$ a

Shang-Chi.and.the.Legend.of.the.Ten.Rings.2021.1080p.3D.BluRay.Half-OU.x264.True.torrent ( 25.8 KB )


- |2 h5 K0 z" K1 @3 t. N
7 x0 y( W6 l6 G, x尚气与十环传奇 Shang-Chi.and.the.Legend.of.the.Ten.Rings.2021.1080p.3D.BluRay.Half-SBS.x264.DTS-HD.MA.7.1-FGT 17.95GB2 o( T7 d( R  m6 O/ f2 J

Shang-Chi.and.the.Legend.of.the.Ten.Rings.2021.1080p.3D.BluRay.Half-SBS.x264.DTS.torrent ( 23.17 KB )


2 R% I: h4 c4 c7 K, s( y% z. N! @
尚气与十环传奇 Shang-Chi.and.the.Legend.of.the.Ten.Rings.2021.1080p.3D.BluRay.Half-SBS.x264.TrueHD.7.1.Atmos-FGT 18.84GB; w& K. Z# U4 L6 y# C: a+ a+ ]6 q

Shang-Chi.and.the.Legend.of.the.Ten.Rings.2021.1080p.3D.BluRay.Half-SBS.x264.Tru.torrent ( 24.26 KB )

4 W4 ~, z+ Y3 f
$ S" ]0 ~. i7 c. {1 k& c7 q! g2 d
加入蓝光高清网VIP会员  无限制下载本站所有资源---点这里

资源下载、资源播放、字幕使用、无法下载等常见问题---点这里
回复

使用道具 举报

全部回复0 显示全部楼层

发表回复

您需要登录后才可以回帖 登录 | 立即注册

本版积分规则

开通会员 帮助中心 返回顶部 返回列表