本站已运行

蓝光高清网

搜索
开启左侧

永恒族 Eternals.2021.1080p.3D.BluRay.Half-OU.x264.DTS-HD.MA.7.1-3D电影下载

蓝鸟 发表于 2022-10-26 10:52:51 | 显示全部楼层 |阅读模式
永恒族 豆瓣评分: 5.8分
片长: 156分钟 ( 2021年上映)
类型:动作 科幻 奇幻 冒险 
导演:赵婷
主演:嘉玛·陈 / 理查德·麦登 / 安吉丽娜·朱莉 / 萨尔玛·海耶克 / 基特·哈灵顿
3 D 格式:half-ou sbs 

封装音轨:DTS-HD.MA 7.1 Dolby TrueHD 7.1 Dolby Atmos 
本帖最后由 蓝鸟 于 2022-10-26 10:54 编辑
4 E* S# f2 k! K5 u7 x* y0 o0 E$ C2 j# v" c3 I
简       介$ E! f) z/ W2 b8 o- v  H0 Z$ }
( ^* o1 ?# Z* y( [! H4 P3 S* F: c; j
       公元前5000年,“天神族”的“审判者”阿里瑟姆从奥林匹亚星挑选10位拥有超能力的“永恒族”,派遣他们前往地球抵御“变异族”的入侵。几千年来,永恒族一直帮助人类抵御变异族入侵。最后一批变异族在1521年被消灭后,永恒族内部对于是否继续保护人类一事产生分歧,最终决定分开,并等待阿里瑟姆将他们召唤回母星。4 m- b" s: c$ l; i" P& T5 l+ t
  时间到了现在,瑟西(嘉玛·陈 Gemma Chan 饰)和丝派特(莉亚·麦克休 Lia McHugh 饰)一同住在英国伦敦。500年前,瑟西与前男友伊卡瑞斯(理查德·麦登 Richard Madden 饰)分开,并结交了在伦敦自然史博物馆工作的戴恩·惠特曼(基特·哈灵顿 Kit Harington 饰)。一天晚上,一位名叫克罗的变异族突袭三人,伊卡瑞斯却突然出现,暂时击退克罗。瑟西、丝派特和伊卡瑞斯意识到情况不妙,于是决定紧急召集其他人以应对新的威胁……
* X/ }9 f8 |+ v& i; S! ?9 z
% K1 b( M( P& W+ H+ q1 z9 }
% L& p" x7 Z; E1 J% v
影片参数
Video6 t% l) O( I6 B
ID                                       : 1
- I( R) X8 [2 |3 I( iFormat                                   : AVC2 l- i$ ]; A3 y. t# J& X* E4 Y
Format/Info                              : Advanced Video Codec
  R- K5 I1 R# w8 N* tFormat profile                           : [email protected], F6 X+ _' N+ d* U* z
Format settings                          : CABAC / 2 Ref Frames* }9 K, Z" f' \/ a. @6 h2 w) w
Format settings, CABAC                   : Yes
# ]4 @' M5 k1 H4 G+ kFormat settings, Reference frames        : 2 frames# z7 t. E1 ?) w
Format settings, GOP                     : M=3, N=24
9 g' k, [1 i1 hCodec ID                                 : V_MPEG4/ISO/AVC
. R" J( U( g4 f) `; e6 G% zDuration                                 : 2 h 35 min
* |7 j5 j* u; {; }& E5 Z/ P. x1 wBit rate                                 : 14.7 Mb/s" G; o/ w3 ]. g3 F3 N$ P
Nominal bit rate                         : 16.0 Mb/s
3 Z9 k9 v7 i1 M0 c7 WWidth                                    : 1 920 pixels4 d2 d9 {5 m4 Y& w. R/ w6 O! r
Height                                   : 1 080 pixels
, f  W& [5 |6 A6 y2 F; k$ m5 PDisplay aspect ratio                     : 16:9
- Q1 A. v0 I! S1 dFrame rate mode                          : Constant
: x  ]# z# _. T" }, r6 p* VFrame rate                               : 23.976 (24000/1001/189150) FPS
/ Z# @* M8 ~3 _/ {Color space                              : YUV: ]. t8 Q8 w: U/ `4 t2 y" u
Chroma subsampling                       : 4:2:0% ]5 q  }! s) |+ k: `
Bit depth                                : 8 bits
, d* R7 z  J, l' wScan type                                : Progressive( o% D+ c6 i* T( C4 E- T, w
Bits/(Pixel*Frame)                       : 0.296
% I: v4 H2 R6 G8 R$ ZStream size                              : 16.0 GiB (70%)
; ?% b" w5 s/ @- OWriting library                          : x264 core 148
/ D7 i. y4 t# q2 @; q! K9 xEncoding settings                        : cabac=1 / ref=1 / deblock=1:-1:-1 / analyse=0x3:0 / me=hex / subme=5 / psy=0 / mixed_ref=0 / me_range=16 / chroma_me=1 / trellis=0 / 8x8dct=1 / cqm=0 / deadzone=21,11 / fast_pskip=0 / chroma_qp_offset=0 / threads=48 / lookahead_threads=8 / sliced_threads=0 / nr=0 / decimate=1 / interlaced=0 / bluray_compat=0 / constrained_intra=0 / bframes=2 / b_pyramid=0 / b_adapt=1 / b_bias=0 / direct=1 / weightb=0 / open_gop=0 / weightp=0 / keyint=24 / keyint_min=13 / scenecut=40 / intra_refresh=0 / rc_lookahead=24 / rc=cbr / mbtree=0 / bitrate=16000 / ratetol=1.0 / qcomp=0.60 / qpmin=0 / qpmax=69 / qpstep=4 / vbv_maxrate=16000 / vbv_bufsize=16000 / nal_hrd=none / filler=0 / ip_ratio=1.40 / pb_ratio=1.30 / aq=1:1.00$ G3 y/ Y! B: b1 P7 }
Default                                  : Yes* u+ E' f5 j6 }$ ^5 B% d
Forced                                   : No% j% t8 I) F* z3 g- Z. I# n" p6 C
Color range                              : Limited  [) h3 a1 }3 Z
Color primaries                          : BT.709
$ b+ j2 s7 c& a- c: h9 t! R. J0 tTransfer characteristics                 : BT.7099 q; w2 P3 a2 H9 P4 m( u1 ]
Matrix coefficients                      : BT.709# U5 W9 r3 d% S0 j* E- @
Audio #1
' t( V1 o1 {- y3 XID                                       : 2
2 q' M7 A* R: F$ a/ cFormat                                   : DTS XLL) M# D* ^; _) ^3 A2 R9 X
Format/Info                              : Digital Theater Systems
1 B) Y. U3 e% N+ G" `1 X4 f6 c& k; MCommercial name                          : DTS-HD Master Audio+ T8 U% b" P( R- x) |/ a
Codec ID                                 : A_DTS
1 d; t8 Y0 _; B1 G# V8 P( ?9 bDuration                                 : 2 h 35 min- g& b2 O9 A9 a% T  R: ]& U( {
Bit rate mode                            : Variable4 D) g. ?# ~  U* Z( E" o5 F: Z
Bit rate                                 : 4 158 kb/s# y& [' s8 D# M" H
Channel(s)                               : 8 channels8 z. `3 L  i7 x1 \6 \
Channel layout                           : C L R LFE Lb Rb Lss Rss
0 R" n7 H5 K2 @2 s3 NSampling rate                            : 48.0 kHz) j5 j% g1 |9 h6 d6 T# ^
Frame rate                               : 93.750 FPS (512 SPF)
3 }$ W: s1 j3 O7 q8 q) B2 N' QBit depth                                : 24 bits3 J) l& E0 Z! ^- c$ d; n
Compression mode                         : Lossless
3 h. ^# z* P7 V$ |+ UStream size                              : 4.53 GiB (20%)
6 F. Z6 m# v( t2 _8 x3 D; cTitle                                    : DTS-HD MA 7.1; y: x4 c) v' `8 n) _8 h
Language                                 : English
' Z- I, \: I! \5 J  p: l* ZDefault                                  : Yes
" D  \) L$ j8 `, CForced                                   : No
( o6 [. U+ W0 V4 `( I+ MAudio #2
% G+ Z5 c( ]! h+ Z4 S3 BID                                       : 33 T2 }9 Y6 t0 w2 u! c; _
Format                                   : DTS XBR; V/ T9 y/ K' S. }& [% b! c
Format/Info                              : Digital Theater Systems, w0 F& f# a2 |
Commercial name                          : DTS-HD High Resolution Audio
& r4 b" P8 W. a" `! z9 eCodec ID                                 : A_DTS6 B/ b- S7 o3 @; f4 Z3 T
Duration                                 : 2 h 35 min; c3 \, b8 ~4 |. \" Z( ?+ k. k
Bit rate mode                            : Constant
8 y* a2 r$ ^1 p& n& BBit rate                                 : 2 046 kb/s! N4 P8 v! s5 _+ p8 f3 L7 ?2 L- ?: L
Channel(s)                               : 8 channels  `7 S. I$ W9 d; z
Channel layout                           : C L R LFE Lb Rb Lss Rss
3 l7 ~" N5 f: x) o" p. L. ~Sampling rate                            : 48.0 kHz2 l# y* N7 _; A8 z. G# j& w/ w, Y
Frame rate                               : 93.750 FPS (512 SPF)
% r4 i8 R; r; j: `* F1 D6 oBit depth                                : 24 bits! L+ |6 u4 g# C% f6 `: h' @
Compression mode                         : Lossy; r) ~& t; q0 j
Stream size                              : 2.23 GiB (10%)
$ G  w' W, A) ?7 xTitle                                    : DTS-HR 5.1* P' R2 g1 H7 }3 ^  i
Language                                 : Japanese
' L( a; {' ?" _. j, aDefault                                  : No
5 U0 b/ f6 ~; Z( N! E# PForced                                   : No
( D: T: \* w4 M. L- fText #1# a: T" y' t  s
ID                                       : 4
8 n7 R, ]% r  I# OFormat                                   : PGS& [6 l  w: ?( G8 B
Muxing mode                              : zlib! _, ^/ D' v! @4 ]
Codec ID                                 : S_HDMV/PGS
. C( f- Y  U& r( N" Q) q, hCodec ID/Info                            : Picture based subtitle format used on BDs/HD-DVDs
  }/ ]% o8 \' U& L8 W, dDuration                                 : 2 h 32 min
+ m" I6 e* p5 UBit rate                                 : 1 514 b/s
) ~. D% |# X0 N1 F0 i( V9 W, p  [& F" YFrame rate                               : 0.019 FPS
* q: x! @% G3 e% ~4 gCount of elements                        : 172
1 |8 ^( _& G+ N  X% C  M, u6 h; Q$ W) OStream size                              : 1.65 MiB (0%)/ K+ m% {$ A: Z( N; v3 l( \- y
Title                                    : FORCED: [5 g) H9 N8 M3 p/ X/ U' }
Language                                 : English8 E( Q/ ^  [5 [( v  S3 ?" q
Default                                  : No
" q2 ]7 ~5 z. Y  eForced                                   : Yes6 C& Y8 Z8 I9 T- ~
Text #21 w8 \: `* {3 u3 k
ID                                       : 5
; j& i% }5 O+ V- ]Format                                   : PGS
1 G' c5 a: @8 K' @Muxing mode                              : zlib( O" Q# [# g* N2 C4 R1 M
Codec ID                                 : S_HDMV/PGS
! A% k( o/ ?# tCodec ID/Info                            : Picture based subtitle format used on BDs/HD-DVDs6 U" c7 G. L: _8 p9 @  q% T
Duration                                 : 2 h 33 min& p$ @) v' Y2 U* b
Bit rate                                 : 34.3 kb/s
% f5 a9 N+ V: T+ `; }) O' TFrame rate                               : 0.353 FPS
/ H5 Q/ X8 `" r) B. n* zCount of elements                        : 3256
" e7 w+ R6 P5 MStream size                              : 37.8 MiB (0%)
3 J0 V5 v2 Z4 G4 t. I2 p+ k+ R9 \Language                                 : English
$ f6 [4 w, U3 PDefault                                  : Yes8 R6 h  b6 Z' l$ B
Forced                                   : No
8 @3 _  C$ x5 B  b# sText #3
* B" S* j5 b) p, |; eID                                       : 6+ Z& F! G7 ]: v' j# F6 h) t
Format                                   : PGS9 }3 C& C$ k5 x+ Q3 x( c$ {
Muxing mode                              : zlib
' n( w0 U' O) D, iCodec ID                                 : S_HDMV/PGS
3 o/ ]: L! _$ RCodec ID/Info                            : Picture based subtitle format used on BDs/HD-DVDs. j0 s3 q5 X) E( a- ^
Duration                                 : 2 h 32 min
  k  r2 D1 N1 u# w* T' DBit rate                                 : 2 000 b/s
5 a/ U( Q7 X& Q7 }Frame rate                               : 0.021 FPS
  M# n* i! b& G! jCount of elements                        : 1968 _5 V" K7 L7 w6 C( K( p% q
Stream size                              : 2.19 MiB (0%)' M. ~, R/ ]1 c
Language                                 : Japanese) g* u" F  A1 Q" Y* [4 o
Default                                  : No: C8 i( x8 c% N3 \0 F
Forced                                   : No7 @0 ~2 X: v. J) D# c1 d
Menu
8 E' Q2 V! D' F00:00:00.000                             : en:Chapter 01
  G+ m6 t- A( P0 i' ]/ P00:06:43.194                             : en:Chapter 023 ^3 B; g5 X7 t
00:20:22.888                             : en:Chapter 03
$ {: I$ O9 s: @8 ], `9 l00:31:11.703                             : en:Chapter 04
: ?+ @" E5 h* ~* G' \+ f: i00:35:04.435                             : en:Chapter 05/ ^  q9 H; a; d$ ?! A
00:43:01.412                             : en:Chapter 06
( Y' m% J6 \$ g+ a$ g  X00:49:29.007                             : en:Chapter 07
# u. v; S9 {- h2 J" t# h00:55:50.096                             : en:Chapter 08' E% n' B# l9 D  ]0 |
01:02:29.537                             : en:Chapter 095 r! F: W% K5 {( o0 Q# g
01:07:56.530                             : en:Chapter 10
: H- _% R  |5 }0 Y# N: Q5 ~01:10:39.568                             : en:Chapter 111 O- F/ Z( ?8 B1 u1 r  T( J7 a+ Z' z
01:18:58.275                             : en:Chapter 12) V" K- u0 g, q- j8 g6 z( y
01:24:36.780                             : en:Chapter 13
$ O8 C! g: \( ]- Z01:29:56.516                             : en:Chapter 14" U( h# s$ g) j: q- N
01:36:03.048                             : en:Chapter 15
  C( N" N. |; l7 z01:42:47.578                             : en:Chapter 16( E7 c5 V1 I# A! Q3 Z: |
01:46:27.881                             : en:Chapter 17
8 B' v5 ~8 c6 y$ ~$ Y* [  g- K3 G01:51:51.162                             : en:Chapter 18) r+ I! [, e9 h+ ?1 Q0 l% Y
01:55:57.951                             : en:Chapter 193 L- C) ?, R* B1 Q
02:01:46.132                             : en:Chapter 202 B4 N; w8 y8 U/ X
02:06:30.249                             : en:Chapter 215 J; j( X9 [* `
02:11:41.894                             : en:Chapter 22
: R6 r5 K  [0 C7 o" T5 K1 I02:16:32.350                             : en:Chapter 23
) W& R# ?  P& ^" k) k; |02:23:10.665                             : en:Chapter 24# u+ L! b6 x" G/ U) o3 t
02:25:45.027                             : en:Chapter 253 R) j0 @; l7 [2 W. J$ M
02:27:56.492                             : en:Chapter 26
2 T9 O# C$ ?+ u2 p2 P& S02:34:27.174                             : en:Chapter 27
4 d7 U  i7 y" U# ^
蓝光高清网提示您 点击下方附件名称 即可开始下载
) w( K8 ]- @  s5 O9 v
2 s; a) d5 ?( e! _多版本下载时请注意区分
5 l5 O# `3 `) r: w* A2 k' V' J: X" ^* |' O! k
永恒族 Eternals.2021.1080p.3D.BluRay.Half-OU.x264.DTS-HD.MA.7.1-3D电影下载$ n/ Q- \3 d6 a0 w1 Z, ]9 E

6 T$ g6 _% M# r* M/ P- s永恒族 Eternals.2021.1080p.3D.BluRay.Half-OU.x264.DTS-HD.MA.7.1-FGT 22.77GB9 j5 B8 u1 J! N+ X( R

Eternals.2021.1080p.3D.BluRay.Half-OU.x264.DTS-HD.MA.7.1-FGT.torrent ( 29.11 KB )


3 d' h+ l' t  G/ I" s4 V
9 z( w6 m) Y+ }7 U5 _! R永恒族 Eternals.2021.1080p.3D.BluRay.Half-SBS.x264.DTS-HD.MA.7.1-FGT 21.20GB9 C, h9 E  _2 A  ?$ T1 m7 V; {

Eternals.2021.1080p.3D.BluRay.Half-SBS.x264.DTS-HD.MA.7.1-FGT.torrent ( 27.16 KB )

+ n5 [" |4 v/ ]+ w6 s; X

$ d" k8 g- }' `2 ~永恒族 Eternals.2021.1080p.3D.BluRay.Half-OU.x264.TrueHD.7.1.Atmos-FGT 23.80GB
$ l* P% k  B# F7 N- [

Eternals.2021.1080p.3D.BluRay.Half-OU.x264.TrueHD.7.1.Atmos-FGT.torrent ( 30.41 KB )


2 o; k5 d+ H) P1 A. @% Q5 Y

$ a( p8 J. O# u* i6 H永恒族 Eternals.2021.1080p.3D.BluRay.Half-SBS.x264.TrueHD.7.1.Atmos-FGT 22.23GB
) D2 W+ j% T% o8 S& D! n3 g  t

Eternals.2021.1080p.3D.BluRay.Half-SBS.x264.TrueHD.7.1.Atmos-FGT.torrent ( 28.44 KB )


$ X( T8 W. w" h7 s
, N& P9 K8 u7 f% i$ [
; d$ y/ V$ S( ]' T4 f
加入蓝光高清网VIP会员  无限制下载本站所有资源---点这里

资源下载、资源播放、字幕使用、无法下载等常见问题---点这里
回复

使用道具 举报

全部回复0 显示全部楼层

发表回复

您需要登录后才可以回帖 登录 | 立即注册

本版积分规则

开通会员 帮助中心 返回顶部 返回列表