本站已运行

蓝光高清网

搜索
开启左侧

沙丘 Dune.2021.1080p.3D.BluRay.Half-OU.x264.TrueHD.7.1.Atmos-3D原盘电影下载

蓝鸟 发表于 2022-10-26 11:04:09 | 显示全部楼层 |阅读模式
沙丘 豆瓣评分: 7.7分
片长: 156分钟 ( 2021年上映)
类型:剧情 科幻 冒险 
导演:丹尼斯·维伦纽瓦
主演:蒂莫西·柴勒梅德 / 丽贝卡·弗格森 / 奥斯卡·伊萨克 / 戴夫·巴蒂斯塔 / 赞达亚
3 D 格式:half-ou sbs 

封装音轨:DTS-HD.MA 7.1 Dolby TrueHD 7.1 Dolby Atmos 
简       介
4 t7 I3 T$ d( U& `( n' @$ n" w
+ e- B9 X" _; ?' u8 X; Y  电影《沙丘》为观众呈现了一段神秘而感人至深的英雄之旅。天赋异禀的少年保罗·厄崔迪被命运指引,为了保卫自己的家族和人民,决心前往浩瀚宇宙间最危险的星球,开启一场惊心动魄的冒险。与此同时,各路势力为了抢夺这颗星球上一种能够释放人类最大潜力的珍贵资源而纷纷加入战场。最终,唯有那些能够战胜内心恐惧的人才能生存下去。) `  M' \# m, U* {+ L8 _) R
  t7 T% W5 }6 U; v, v
获奖情况 (共42项)* o6 Y/ C8 C1 @9 N( j2 C
     第94届奥斯卡金像奖 (2022)2 z' E! @& K  N4 y, @! W
  最佳影片(提名)" g, |5 b+ h1 s/ b  ?7 J
  最佳改编剧本(提名)
# v2 J( W3 q" R  最佳摄影
1 q# j# ?' S* m  L8 b   └──格雷格·弗莱瑟 (id:1028361)8 A. y9 T3 J7 N+ U0 W  z/ Y
  最佳剪辑  j! [' O5 v. b0 h
   └──乔·沃克 (id:1336020)
$ q% w! z5 m' K  最佳视觉效果
, ~- @" j* T4 D' F- e  W  最佳音响
) B+ r5 v" T2 c  最佳艺术指导
. r+ y/ G9 D0 S  最佳服装设计(提名)0 V! D1 ~: Q* h4 S
   └──杰奎琳·韦斯特 (id:1300754), m! \" Y' i: b. `9 v# z* h) ~* ]! A
  最佳化妆与发型设计(提名)
2 }) R% y4 c& y5 x' x  最佳原创配乐
+ j% A" x# i. K4 }% O9 C   └──汉斯·季默 (id:1054386)3 F/ m+ n0 }. P* X
  第79届金球奖 (2022)7 \: V2 Y3 ~: T$ `
  电影类 最佳剧情片(提名)' G) L( p9 B8 s  P
  电影类 最佳导演(提名)
2 `# k9 M# b3 t2 G) D1 D   └──丹尼斯·维伦纽瓦 (id:1028333)
$ R+ \6 Z5 `7 ~2 V! K1 {* T  电影类 最佳原创配乐' {  W0 l& t0 M; ^0 i
   └──汉斯·季默 (id:1054386)& ^% ?* r+ }  e1 B  H
  第75届英国电影学院奖 (2022)
* ^* j) `2 F2 X, B* I4 u  电影奖 最佳影片(提名)  Z, [/ ?" [) r( l6 r* B$ {
  电影奖 最佳改编剧本(提名)
: n: O4 A8 `( e" H  电影奖 最佳摄影
: _7 n# G  Q; r* {# J2 Q  电影奖 最佳剪辑(提名)4 C  E' N# n% U9 O/ G( s' D
  电影奖 最佳化妆/发型(提名)
+ a  m" U$ n. g+ A  电影奖 最佳服装设计(提名)
& }( i  B. F+ [# o8 R0 m  电影奖 最佳艺术指导) q# Y8 P% v+ ~
  电影奖 最佳特殊视觉效果. f4 I# V/ u3 s% s- @" j2 E: H
  电影奖 最佳原创配乐- X- ?$ {9 L; o/ s  x% H& d2 |
  电影奖 最佳选角(提名)
9 z+ ?7 S7 b# Z( E- T  电影奖 最佳音效( ?. K- y8 {) i" J: C2 A
  第45届日本电影学院奖 (2022)$ ]6 j, o) J4 {2 M8 _8 J
  最佳外语片(提名)8 _1 e( v3 Y" p% ?# b& t6 G
  第67届意大利大卫奖 (2022)
1 y8 c7 s) p, ^1 @0 U  v2 M' w  最佳外语片(提名)
- @/ P, {& Q- ?: }* _   └──丹尼斯·维伦纽瓦 (id:1028333)9 K# u4 |- t* _( Z3 ]3 e( x
  第74届美国导演工会奖 (2022)5 B# }% P$ d4 _! @3 [. H" G
  最佳电影导演(提名)
1 I& p# j8 j4 k4 h   └──丹尼斯·维伦纽瓦 (id:1028333), p. i) ~! I6 Z9 ~/ ?- G. c+ Z, w( ~
  第28届美国演员工会奖 (2022)% u7 Q0 `& v$ A) U! D- u4 [
  电影最佳特技群戏(提名)
  J' k% q. m6 h9 Q  第74届美国编剧工会奖 (2022)
) M* S& [) c, i$ F; `1 K/ t  电影奖 最佳改编剧本(提名): O8 @5 t* \5 l
  第24届美国服装设计工会奖 (2022)/ J2 h: o0 }4 b( B# L% Z: U, O
  科幻/奇幻题材电影最佳服装设计(提名)+ ]: A9 g: n5 q
  第27届美国评论家选择电影奖 (2022)
2 C6 D; c; }# r+ N7 J" e& c  最佳影片(提名)
, U' }& R$ y9 j$ O* t, }' Y/ b  最佳导演(提名)
" a+ m8 ?1 M# J7 Y- b( l   └──丹尼斯·维伦纽瓦 (id:1028333); `9 S+ `  W  `! P& |8 m- x
  最佳改编剧本(提名)0 `. y3 W& d+ g
  最佳摄影(提名)
6 J; N4 i1 W4 v+ T   └──格雷格·弗莱瑟 (id:1028361)
5 I3 f, N4 @5 o" Q# @# }& c6 r  ?' m  最佳剪辑(提名)
" V- o1 I5 U* |0 Q7 m% O3 s: n   └──乔·沃克 (id:1336020)
% m# r7 E4 h& z  最佳配乐
; f1 E; P& W; R1 T  最佳美术指导
, O6 j9 e, ~! x: J4 H8 Y5 B  h  最佳服装设计(提名)
4 B$ Q3 N% X5 ?+ i  最佳发型化妆(提名)
  V2 ]8 @2 W$ ?- r; O8 R  最佳视觉效果, h( R5 D. a8 O' m+ x
  第7届豆瓣电影年度榜单 (2020)
* i7 n/ R0 I7 M( B  c+ F4 u- ~  最值得期待的外语电影(提名)
4 e+ W& |: `. j# n( O1 i  第6届豆瓣电影年度榜单 (2019)
8 W/ m4 V: J' Z0 v; z  最值得期待的外语电影(提名)
- m$ x. G# f# Y6 y/ ^4 [! {, n( F0 r9 q7 V. {
影片参数6 Q: y; a9 x' R3 V; F9 J7 O  N
Video
( A/ ?/ I" G( k5 J% s6 SID                                       : 11 R5 A6 B0 s* `: Z. r
Format                                   : AVC
1 g8 u, N  g( K: S& M* sFormat/Info                              : Advanced Video Codec
. V+ J3 D! b* k  WFormat profile                           : [email protected]8 D2 w8 c% a  e6 C, q& I8 U
Format settings                          : CABAC / 2 Ref Frames
/ s( P1 |  g4 T! _: YFormat settings, CABAC                   : Yes* E) s* S8 a- J+ ]" p9 F7 N
Format settings, Reference frames        : 2 frames
9 J4 Q0 W! X  k: j2 ~# HCodec ID                                 : V_MPEG4/ISO/AVC$ ~; V6 J) S% S/ {3 T9 [: _
Duration                                 : 2 h 35 min' P' ?& X& ?& D9 E5 Q
Bit rate                                 : 14.7 Mb/s
  D- H6 K" s( V0 S: t9 U0 _, jNominal bit rate                         : 16.0 Mb/s
+ `# W' f* ?# y6 V3 Q8 Z& RWidth                                    : 1 920 pixels8 i* W, T% }0 T% N" m
Height                                   : 1 080 pixels
1 _* v- y; f7 U. r9 p+ P' iDisplay aspect ratio                     : 16:9
* P. ?% x  C3 ~8 q( o( Q$ x7 pFrame rate mode                          : Constant# n. Q3 A3 K9 h
Frame rate                               : 23.976 (24000/1001/189150) FPS8 d/ Q) A5 K# {4 h
Color space                              : YUV
! E3 ^4 K4 b, a2 e( M& s2 j6 {Chroma subsampling                       : 4:2:0
" k& E9 p+ B( r2 `Bit depth                                : 8 bits4 p# ~% t. c! o
Scan type                                : Progressive4 X5 d5 c9 G, ~4 L  J0 Q& A
Bits/(Pixel*Frame)                       : 0.295- V3 O* _# j9 ?, L# @+ m: i8 O% t8 @9 V
Stream size                              : 15.9 GiB (65%)+ L" c: y; [5 O, x' X% u
Writing library                          : x264 core 148
! K" T' v) i8 y" {$ x0 p4 aEncoding settings                        : cabac=1 / ref=1 / deblock=1:-1:-1 / analyse=0x3:0 / me=hex / subme=5 / psy=0 / mixed_ref=0 / me_range=16 / chroma_me=1 / trellis=0 / 8x8dct=1 / cqm=0 / deadzone=21,11 / fast_pskip=0 / chroma_qp_offset=0 / threads=48 / lookahead_threads=8 / sliced_threads=0 / nr=0 / decimate=1 / interlaced=0 / bluray_compat=0 / constrained_intra=0 / bframes=2 / b_pyramid=0 / b_adapt=1 / b_bias=0 / direct=1 / weightb=0 / open_gop=0 / weightp=0 / keyint=24 / keyint_min=13 / scenecut=40 / intra_refresh=0 / rc_lookahead=24 / rc=cbr / mbtree=0 / bitrate=16000 / ratetol=1.0 / qcomp=0.60 / qpmin=0 / qpmax=69 / qpstep=4 / vbv_maxrate=16000 / vbv_bufsize=16000 / nal_hrd=none / filler=0 / ip_ratio=1.40 / pb_ratio=1.30 / aq=1:1.00
* x: y8 G9 f2 a% m' ^3 K% i. \& R; KDefault                                  : Yes+ c; s  B+ T& q  B" F' o
Forced                                   : No0 d4 ?0 p% L3 ?4 J3 k% u5 W
Color range                              : Limited. [. w) j$ C& C/ R
Color primaries                          : BT.709
4 g& h3 w) k. G! R  FTransfer characteristics                 : BT.709; ~* z$ r, r2 i
Matrix coefficients                      : BT.709: V' `; }+ e7 j# }7 E
Audio #18 r6 z( ]8 p+ M  Z+ u
ID                                       : 2
# c6 i7 S/ m7 q5 j' {Format                                   : MLP FBA 16-ch
0 C0 {, R& e# n' @. RFormat/Info                              : Meridian Lossless Packing FBA with 16-channel presentation
! f5 ?  b. \7 U$ t1 @! ECommercial name                          : Dolby TrueHD with Dolby Atmos) D: a; H* y" v8 O9 H
Codec ID                                 : A_TRUEHD
% R. {1 `( }5 r3 \) uDuration                                 : 2 h 35 min& B, y, _9 G& N0 b0 q
Bit rate mode                            : Variable
% L! W: Z: q" Y3 @  {% CBit rate                                 : 3 243 kb/s
! c3 _2 r4 V! mMaximum bit rate                         : 5 472 kb/s* N9 t9 v; }. G: `
Channel(s)                               : 8 channels$ e! w: L+ H/ A* v
Channel layout                           : L R C LFE Ls Rs Lb Rb
, P! B$ V2 t+ w2 {* y* eSampling rate                            : 48.0 kHz8 o% ?0 ~5 l7 D# Z4 L" ~
Frame rate                               : 1 200.000 FPS (40 SPF)
0 G2 X" X- {5 V2 ^+ F) wCompression mode                         : Lossless
- }% y8 {9 K4 {7 z2 Y+ L, `Stream size                              : 3.52 GiB (14%): Q2 E! A& a! P  F( a5 }4 n8 ]
Title                                    : TrueHD 7.1 Atmos2 q( I- e0 f9 q$ t1 F4 g' X
Language                                 : English# C/ _1 _  j% _% i
Default                                  : Yes+ _- u$ v+ ?, a1 D1 a$ I
Forced                                   : No7 Y# o! E3 u) c6 Q% D! `
Number of dynamic objects                : 11
1 L' O: [4 F: OBed channel count                        : 1 channel
6 C% i3 G/ t+ Z3 Z+ GBed channel configuration                : LFE
- q- x2 I; ]2 {$ N* mAudio #24 _$ C/ s% \. `: u" U: ]) k
ID                                       : 3
3 G7 L2 b. Y8 x% g) lFormat                                   : AC-3) ?4 O- C$ `+ V0 I+ r
Format/Info                              : Audio Coding 3& o( C$ b" g' r6 }5 P) l  ]
Commercial name                          : Dolby Digital8 h, Q2 }$ o, u+ p
Codec ID                                 : A_AC3
7 @. N+ t5 I! t5 S3 hDuration                                 : 2 h 35 min+ ^# d, R( I4 q4 f2 j. r
Bit rate mode                            : Constant
: v, f) _/ q# WBit rate                                 : 384 kb/s
8 n+ b( s4 R& Z8 V& v8 AChannel(s)                               : 6 channels
" P) G& ~3 D& T- E* r6 p& u: yChannel layout                           : L R C LFE Ls Rs
( A; d1 `4 b( ZSampling rate                            : 48.0 kHz# @, w$ I& o1 L( c& M' `
Frame rate                               : 31.250 FPS (1536 SPF)2 o3 G: b2 B" Y# V/ d
Compression mode                         : Lossy
4 v1 ]: W* P  r0 X$ i& f; {! N) }Stream size                              : 427 MiB (2%)8 J  S7 ?: L4 {2 L" v
Title                                    : DD 5.12 _' @2 b( W1 I7 O( @) V9 J
Language                                 : English+ T5 G+ i! ]/ m4 U, ]* n
Service kind                             : Complete Main, ]: P& ~1 I& g
Default                                  : No
  \5 |& S, r( i. AForced                                   : No
) `( a% Y) T- b0 b+ ~Audio #3& V; a: g& y. ^+ w4 @7 O: J+ T
ID                                       : 43 i7 k  ^, c  F' b2 F
Format                                   : AC-3
5 N& i8 {; c( j4 ]1 R( }; h: cFormat/Info                              : Audio Coding 3" I' O; E6 v) P
Commercial name                          : Dolby Digital, t6 i6 z0 [: N( d- g
Codec ID                                 : A_AC3
% v7 F& ]/ `# p6 C5 ODuration                                 : 2 h 35 min8 h' v8 j8 N% _% d
Bit rate mode                            : Constant
0 d! t0 ?' e6 M' ?3 {6 qBit rate                                 : 384 kb/s
% _0 D+ |/ p" H. y" pChannel(s)                               : 6 channels  l- W/ \, Z2 ]& x' }" R8 M
Channel layout                           : L R C LFE Ls Rs
2 r* A* I" t2 k7 R1 FSampling rate                            : 48.0 kHz. i! c8 }1 j+ H( o5 M3 e1 P
Frame rate                               : 31.250 FPS (1536 SPF)2 Y# ~, A% c5 F3 `
Compression mode                         : Lossy
6 C8 D6 M( l9 k$ |6 lStream size                              : 427 MiB (2%)
3 l- G2 d  c$ e1 }Title                                    : DD 5.1* p! m9 ~3 r" _( g* N# c1 L
Language                                 : English$ r% h8 o! z+ \: t& S0 i0 Z3 _
Service kind                             : Complete Main
5 T0 e5 t) j" [1 }0 M, @Default                                  : No: o9 I6 {8 |- X# e" d, d
Forced                                   : No# V& S9 l6 i! e, T# |
Audio #4
( j: e  h2 i1 {) S! M# S$ H/ vID                                       : 52 n( V+ z& O/ l6 h3 I
Format                                   : AC-3
, O7 ^. V, u4 C0 kFormat/Info                              : Audio Coding 3- G# l/ T: y: ~, V. Z( p9 i+ j
Commercial name                          : Dolby Digital
8 [& a  }9 e% G" X7 Z/ E: D1 \Codec ID                                 : A_AC3
' C: E+ x0 Q4 mDuration                                 : 2 h 35 min% x0 G& n; i$ t- ~: E- p# u5 r
Bit rate mode                            : Constant1 C$ \, ]5 P+ F6 R* R9 T+ g
Bit rate                                 : 448 kb/s4 C& N" a# Z+ n+ `' k3 k% J2 {9 z
Channel(s)                               : 6 channels6 c' }, e! t5 r- y3 g
Channel layout                           : L R C LFE Ls Rs0 r/ A. n; N, v
Sampling rate                            : 48.0 kHz
2 M  z. N  P( I5 mFrame rate                               : 31.250 FPS (1536 SPF)
8 [4 ~# m$ Z! F( E- uCompression mode                         : Lossy
  |6 ^" Y+ W' wStream size                              : 498 MiB (2%)
& v; N8 S/ B! r6 F! [Title                                    : DD 5.1! }# Y$ B- u8 p8 V' h; P
Language                                 : French
! B1 \7 i, l8 M7 {+ o6 `$ O5 {) tService kind                             : Complete Main- X. `& Q7 B6 i2 Y" a
Default                                  : No
. X- s- ^6 M% @( V0 [5 r4 g: HForced                                   : No
, T0 h$ a+ B5 a* C. eAudio #5
; m4 `$ ]+ U7 a2 o' d1 pID                                       : 6
! q/ X' d) b6 uFormat                                   : DTS XLL9 ^% i/ g1 q6 ^/ p6 ], V, ?, k
Format/Info                              : Digital Theater Systems
; z" O; E! q5 [! f' SCommercial name                          : DTS-HD Master Audio. \+ Z& E% p/ I- d5 }0 Z3 g9 b% s! {
Codec ID                                 : A_DTS
: u! k% [6 S* \, w' R; PDuration                                 : 2 h 35 min* j, G) \0 ~) k
Bit rate mode                            : Variable
1 i+ U6 E- F3 @8 u5 V( ~- l1 S" CBit rate                                 : 2 330 kb/s
) p7 H  L# A  e3 a* e6 {Channel(s)                               : 6 channels  l/ D  f" _2 [  j( H
Channel layout                           : C L R Ls Rs LFE
4 J! R- h3 B5 J' zSampling rate                            : 48.0 kHz
2 A. h( }1 o7 I; a! O9 F7 y! L! pFrame rate                               : 93.750 FPS (512 SPF)3 k; l* W1 ]: ^  C
Bit depth                                : 16 bits, [, N# E2 K* x
Compression mode                         : Lossless0 l' T' ^! B. ~/ |
Stream size                              : 2.53 GiB (10%)
, z& {# ~# f, `6 yTitle                                    : DTS-HD MA 5.1
/ \& E/ @2 N$ k# NLanguage                                 : German
  @5 _% `7 @* }! D: WDefault                                  : No
! |4 g, L. O: e% p% J3 nForced                                   : No, l/ j( m; h* V" X
Audio #6) N  o/ x( H" V7 l
ID                                       : 7
' }! t8 B3 U2 m( ]Format                                   : AC-34 ?) L2 U2 h  @( a& h
Format/Info                              : Audio Coding 3
# K, h$ Z3 Q# N3 X! m) GCommercial name                          : Dolby Digital$ S: y6 m, I" u3 a' z' {" X4 Y6 Y
Codec ID                                 : A_AC3: L; R  ~( i& \# O9 h+ ^
Duration                                 : 2 h 35 min
+ `0 V9 V6 _: v# nBit rate mode                            : Constant: v% y" ?7 F! X& S
Bit rate                                 : 128 kb/s
# J) i& b0 h  K! \  g0 [9 `Channel(s)                               : 2 channels
$ p0 w* \2 ~0 _: Z# L) |. E4 ?Channel layout                           : L R
. D9 b+ o& T/ P4 B" D* cSampling rate                            : 48.0 kHz
9 g& f7 ~6 j3 u( DFrame rate                               : 31.250 FPS (1536 SPF)
) l" X! {/ p4 c9 B6 n: _Compression mode                         : Lossy
" \& S- [- J4 k, L+ IStream size                              : 142 MiB (0%)% Y& y( ^4 r) U& w# C/ p- k* v# \# R# x, n
Title                                    : DD 2.0
. x/ a' s/ X" H5 k6 u3 R1 \8 mLanguage                                 : German
# Y& ]$ }% i: yService kind                             : Complete Main
2 B0 ?7 K- w. q+ s- }4 jDefault                                  : No
% d8 Q7 q: F* m; ^7 fForced                                   : No
6 |) I) j& g$ `7 s, L) VAudio #7* M! h* D; R2 u
ID                                       : 8! V% u5 Q5 M: f: b  l: W8 b* [
Format                                   : AC-3
( l0 i  B2 N+ l2 W" l1 S  o1 pFormat/Info                              : Audio Coding 3
3 u) P+ e; E! c; @" F9 _Commercial name                          : Dolby Digital
9 N: M' x! a0 A1 A3 ]3 J- KCodec ID                                 : A_AC3: P9 w5 {4 B) c* h! s% C+ N6 ]2 n
Duration                                 : 2 h 35 min
( h" q9 x' b' Z2 C$ J. VBit rate mode                            : Constant) ^! X) {" \: ?% n! [
Bit rate                                 : 448 kb/s
5 @* q2 u/ n& ]- KChannel(s)                               : 6 channels2 A0 {: T' k+ f3 e9 f
Channel layout                           : L R C LFE Ls Rs: w$ F' T) ~1 E  f, v# K) U7 t
Sampling rate                            : 48.0 kHz
' ~7 G0 @7 l: g, g. ~Frame rate                               : 31.250 FPS (1536 SPF)
5 g- V1 p/ X* ?/ lCompression mode                         : Lossy
6 i# a1 p7 B* r. z7 v& }- h' ~* l9 {+ _Stream size                              : 498 MiB (2%)
) D% C, {0 s8 h9 s6 tTitle                                    : DD 5.15 {' A, e% N6 R# ?# i
Language                                 : Spanish' t& d! N  D* Q7 X
Service kind                             : Complete Main
" }5 ?4 R# k- `9 m+ u2 t0 P# ]Default                                  : No
) W, M1 _) X7 W6 J8 Q+ i( gForced                                   : No/ m: ]1 B- y! M3 O* w. L* Y
Audio #8! L2 l, W; C, L, x3 z. o2 O
ID                                       : 9- y  f* r3 @: J
Format                                   : AC-3- G3 j8 R7 V# Y1 u, E2 J7 `
Format/Info                              : Audio Coding 3
; }" F+ a( D0 d$ P7 `9 |7 p0 GCommercial name                          : Dolby Digital+ C1 Y2 }7 ~  ?. \7 X6 j
Format settings                          : Dolby Surround EX& |6 S8 @! ~+ l
Codec ID                                 : A_AC3
6 O4 |" r3 }, R4 T8 w+ BDuration                                 : 2 h 35 min# |" `9 B! X: P6 g+ ?& l" m
Bit rate mode                            : Constant
3 `' P) H0 d5 O% t/ ]Bit rate                                 : 448 kb/s
$ |0 r% P% [7 ?. B# `' jChannel(s)                               : 6 channels8 [* n5 v9 X1 M5 ~, e( E1 j4 F, j* s
Channel layout                           : L R C LFE Ls Rs; @/ v5 J  {' [/ O, j9 j/ L
Sampling rate                            : 48.0 kHz1 q# k# _/ x8 z) B6 W
Frame rate                               : 31.250 FPS (1536 SPF)$ L7 Q1 O4 S5 P# a' b" b  U2 j4 q
Compression mode                         : Lossy
9 c6 U% b5 Q* r7 ZStream size                              : 498 MiB (2%)
. K0 g( g. t4 X2 MTitle                                    : DD 5.1
* ~3 a3 i+ Y, @1 M$ ^# WLanguage                                 : English
# U4 u, t9 Z8 zService kind                             : Complete Main
0 o7 \7 W' `& Y5 \( IDefault                                  : No- r4 R$ P5 z* j% V5 j2 F$ Q/ m
Forced                                   : No
2 f- P& I4 p4 F5 kText #1
7 B) j6 u. i3 J3 C/ P2 jID                                       : 10
# `+ X$ O5 D& y* KFormat                                   : PGS6 Y3 L! L, P( ^% `
Muxing mode                              : zlib
" w9 M. m4 `4 ~; @Codec ID                                 : S_HDMV/PGS/ T5 [* g. W& I  @2 O7 v
Codec ID/Info                            : Picture based subtitle format used on BDs/HD-DVDs
" \2 t& h. z+ ?5 G" ADuration                                 : 2 h 26 min
8 k- C/ G2 J0 BBit rate                                 : 34.1 kb/s
+ W0 r3 V4 G- z0 Q6 w* V, _Frame rate                               : 0.387 FPS
$ X% j4 S- t  D) ICount of elements                        : 3406% v7 {/ I3 z7 {8 d8 u7 _) ^
Stream size                              : 35.9 MiB (0%)
% m7 d/ y: t$ W! j3 x3 `+ E. rLanguage                                 : English
( g- {' |1 ~* `6 n$ ~% lDefault                                  : No8 D% ~9 u6 O8 p
Forced                                   : No& U  n+ R4 L0 j& M+ w) T. o( v$ ]% U
Text #2) \% I# a# c2 h9 o1 r) s$ I
ID                                       : 11
4 D5 J5 L2 a1 \& J( YFormat                                   : PGS
; N8 `+ a" p5 k: P- oMuxing mode                              : zlib
/ B5 w! R4 _0 q& ~Codec ID                                 : S_HDMV/PGS& ^7 t! q: P! w: q
Codec ID/Info                            : Picture based subtitle format used on BDs/HD-DVDs
9 R* Q5 M& u& c+ y8 [Duration                                 : 2 h 35 min
2 \! }7 O; K- E+ VBit rate                                 : 24.4 kb/s
' o4 k: |' D. ?4 _. `( P- DFrame rate                               : 0.268 FPS
4 R) V  D$ v9 m$ w% ]0 fCount of elements                        : 2498
' s. l7 I$ @6 J0 M1 n% W/ ~1 e( Y  I  vStream size                              : 27.0 MiB (0%)  {) [9 w4 ~! x. S% Z
Language                                 : French5 A2 ]9 B$ h. B: g2 c
Default                                  : No' j( C0 {9 N( N* q. c; K; x9 Y) \. n
Forced                                   : No/ E0 ~( b6 W3 C( x; y! v& d
Text #35 q% I3 F+ I' L6 ]
ID                                       : 12
! l) ?1 p2 }! F4 E: ^) ?Format                                   : PGS6 Q% Y# C( P( F
Muxing mode                              : zlib
$ }& F$ w8 D: c! ~9 UCodec ID                                 : S_HDMV/PGS
4 \) D  V: i8 L% S6 i( v4 W8 mCodec ID/Info                            : Picture based subtitle format used on BDs/HD-DVDs
/ {) A( U+ e' R! [" F) HDuration                                 : 2 h 35 min
; H; R# j4 l/ \4 X. Z6 c7 JBit rate                                 : 31.1 kb/s
8 W% [+ f  C# lFrame rate                               : 0.275 FPS2 G8 i0 K3 @5 C! o
Count of elements                        : 2560
* f0 ^; W8 d0 m: z: IStream size                              : 34.5 MiB (0%). q4 g5 ^/ [9 x6 i3 ?$ c2 e
Language                                 : German% i! q* }4 T  C$ w5 Z9 J
Default                                  : No  r! j  N$ M0 f; J
Forced                                   : No
1 G' D5 k& T$ ]& d& w+ SText #4
0 [1 p' ~4 S, n! h9 y- KID                                       : 13# J3 B9 g- g- B2 a0 ?/ T6 `* n7 Z
Format                                   : PGS
2 L& F3 Q. {( t" B+ @Muxing mode                              : zlib5 |# ]4 e+ U% C0 [' a6 B; O& V0 y
Codec ID                                 : S_HDMV/PGS
& W; }) H3 R3 A" U1 b- \! fCodec ID/Info                            : Picture based subtitle format used on BDs/HD-DVDs
* |! h1 ]5 P  O$ S( [6 ODuration                                 : 2 h 35 min
7 e6 c% q9 M) j8 v$ qBit rate                                 : 26.1 kb/s
# Q2 g( e' v/ ?6 q) `" n: SFrame rate                               : 0.270 FPS
/ {- e& I  k$ W  X0 I# D! W* kCount of elements                        : 2512" j- L. L# o; G7 S, ^9 W# }$ |
Stream size                              : 29.0 MiB (0%)
# S  L) C' p3 P; @' ]2 qLanguage                                 : Spanish, l- Q$ C! J5 q
Default                                  : No* }5 w3 w  U$ I$ _0 Z% S+ }
Forced                                   : No
/ t8 `2 ~+ |3 R& d8 ~  j* YMenu6 v, q- R; H8 U  h) n, B- g% p  l* C
00:00:00.000                             : en:Chapter 01* A5 n1 J6 ]( _/ l' C/ B
00:03:16.154                             : en:Chapter 02. _7 Y6 g3 Y5 i
00:12:54.815                             : en:Chapter 03; C1 U) N3 v8 r
00:22:00.736                             : en:Chapter 04$ z. Q) g  W3 Y3 t" r  _8 b; Q7 R
00:29:16.921                             : en:Chapter 05/ y" ]5 e- L& A: h& b$ r- s8 v1 [
00:39:10.931                             : en:Chapter 06
6 Q7 U1 V9 x: j2 F& a00:47:19.795                             : en:Chapter 073 n& y7 h6 x+ Q9 g! V+ G6 _
00:56:53.493                             : en:Chapter 08
' Q& \0 t/ H4 A% ~# [01:06:50.381                             : en:Chapter 09/ t7 p+ _. {' f) i' s5 z
01:16:44.891                             : en:Chapter 10
7 m  D7 Z' \- n7 C# H3 C, V5 f01:26:00.655                             : en:Chapter 11( o3 _2 f: R( z) ~
01:36:00.379                             : en:Chapter 12
* |8 j, t7 [3 Y* G( D4 F) {01:45:09.469                             : en:Chapter 13% |2 \' A+ i; O! h3 \. {, g1 F
01:53:50.323                             : en:Chapter 14
$ i0 y) U0 C& _  Y' ]( Q5 [02:03:38.536                             : en:Chapter 15( X4 n$ a) ?' u
02:12:13.342                             : en:Chapter 16
; }2 H4 a2 `8 _, i' Y2 K0 k02:20:45.770                             : en:Chapter 17+ A% e6 d$ c. t/ V- O% X+ v: F" Q
02:27:27.797                             : en:Chapter 18

. G$ o1 A2 J- L( l: L蓝光高清网提示您 点击下方附件名称 即可开始下载" n6 `( o- N$ u" e& ~8 y) i1 _

/ @: @3 f0 E! I4 z1 g多版本下载时请注意区分
1 i1 @4 v6 Z3 j6 V
9 D) w. _, N# j* a9 F5 [. R沙丘 Dune.2021.1080p.3D.BluRay.x264.TrueHD.7.1.Atmos-3D原盘电影下载5 P# s' L6 n" R; |6 [

, m' b! v+ v& E* X4 N" a1 N8 D沙丘 Dune.2021.1080p.3D.BluRay.Half-OU.x264.TrueHD.7.1.Atmos-FGT 24.51GB8 A: L6 z4 X2 Q# s% c( t" ]

Dune.2021.1080p.3D.BluRay.Half-OU.x264.TrueHD.7.1.Atmos-FGT.torrent ( 31.28 KB )

* m* ~) k( C" ]9 G, w" y' f6 g

$ b( s! ?, O8 r5 k沙丘 Dune.2021.1080p.3D.BluRay.Half-SBS.x264.TrueHD.7.1.Atmos-FGT 22.89GB
  D* I5 e1 F* V- o& l& m

Dune.2021.1080p.3D.BluRay.Half-SBS.x264.TrueHD.7.1.Atmos-FGT.torrent ( 29.27 KB )

8 r+ c. o5 S$ O9 r* }
# N# R  _' Y; k  R
沙丘 Dune.2021.1080p.3D.BluRay.Half-SBS.x264.DTS-HD.MA.7.1-FGT 23.15GB
1 R" _& M# T4 |, v9 C8 k% n! N9 x1 @

Dune.2021.1080p.3D.BluRay.Half-SBS.x264.DTS-HD.MA.7.1-FGT.torrent ( 29.58 KB )


; y4 P. k/ G! H2 _# x, [
. {9 ?7 h" t, x% N9 {( C

/ {- a+ s5 H/ q* u
加入蓝光高清网VIP会员  无限制下载本站所有资源---点这里

资源下载、资源播放、字幕使用、无法下载等常见问题---点这里
回复

使用道具 举报

全部回复0 显示全部楼层

发表回复

您需要登录后才可以回帖 登录 | 立即注册

本版积分规则

开通会员 帮助中心 返回顶部 返回列表