本站已运行

蓝光高清网

搜索
开启左侧

奇异博士2:疯狂多元宇宙 Doctor.Strange.in.the.Multiverse.of.Madness.2022.1080p.3D.BluRa.x264.DTS-HD.MA.7.1-3D原盘电影下载

蓝鸟 发表于 2022-10-26 11:10:18 | 显示全部楼层 |阅读模式
奇异博士2:疯狂多元宇宙 豆瓣评分: 6.3分
片长: 126分钟 ( 2022年上映)
类型:动作 恐怖 科幻 奇幻 冒险 
导演:山姆·雷米
主演:本尼迪克特·康伯巴奇 / 伊丽莎白·奥尔森 / 切瓦特·埃加福 / 本尼迪克特·王 / 索契尔·戈麦斯
3 D 格式:half-ou 

封装音轨:DTS-HD.MA 7.1 Dolby TrueHD 7.1 Dolby Atmos 
本帖最后由 蓝鸟 于 2022-10-26 11:11 编辑 / p9 |$ y9 R& k6 z

4 k& A/ W8 _3 x9 A1 g4 U简       介
3 I7 e3 z  F1 Q1 v0 k& D
5 I4 A$ b+ B5 b% N8 [. ^8 E5 P3 c+ @  充满无限未知的疯狂多元宇宙即将展开,一切皆有可能。
; d6 ^2 [, B, D  o5 `2 ^" h! E9 A- O  w6 h% X8 M$ q8 S1 n, V
影片参数
Video& H7 t' X4 s4 x+ b" D
ID                                       : 1
+ q' t, |2 b4 w$ z8 O6 V4 mFormat                                   : AVC7 J1 G9 _+ h) E3 Z' _7 |
Format/Info                              : Advanced Video Codec$ k. k9 [8 f; s; z! q: S. r. y% b
Format profile                           : [email protected]' w5 v& Q  G: Q6 ]) D& j+ B
Format settings                          : CABAC / 2 Ref Frames
8 d  w3 U  v5 z; y5 O- cFormat settings, CABAC                   : Yes
6 `1 `$ i; g8 _" J- d+ PFormat settings, Reference frames        : 2 frames; ^: `, A1 H6 t" I# ^" t( P
Codec ID                                 : V_MPEG4/ISO/AVC
+ J3 h. ^( g3 H$ z. GDuration                                 : 2 h 6 min! l. `( w0 V  s! \8 {) m
Bit rate                                 : 14.7 Mb/s# B" u4 g- Q/ {. l# W8 a% E# s1 Q7 C
Nominal bit rate                         : 16.0 Mb/s
/ w8 d: o3 {1 @! S4 ]Width                                    : 1 920 pixels
3 s! a. s, w, g5 d0 s% WHeight                                   : 1 080 pixels
3 R7 \8 d) o+ c3 p1 VDisplay aspect ratio                     : 16:91 K( Q7 w3 N( k0 Y
Frame rate mode                          : Constant# @; Q( S4 o' H6 p# A  S- J( R
Frame rate                               : 23.976 (24000/1001/189150) FPS+ E# K7 B2 n  u( ~# \
Color space                              : YUV
5 e  a* g4 r% j0 G9 kChroma subsampling                       : 4:2:0$ c% ~! y& H1 G/ ]0 G/ d* m
Bit depth                                : 8 bits
6 s; U7 n5 L# F! i5 W" QScan type                                : Progressive, C0 o+ A4 u! y1 ^
Bits/(Pixel*Frame)                       : 0.296
; i# d8 W/ R/ |& oStream size                              : 13.0 GiB (57%)7 B+ r; a9 B+ b: F. d4 m" c+ Z
Writing library                          : x264 core 148' g( \" X5 U4 j  }* Y3 v: ]( d
Encoding settings                        : cabac=1 / ref=1 / deblock=1:-1:-1 / analyse=0x3:0 / me=hex / subme=5 / psy=0 / mixed_ref=0 / me_range=16 / chroma_me=1 / trellis=0 / 8x8dct=1 / cqm=0 / deadzone=21,11 / fast_pskip=0 / chroma_qp_offset=0 / threads=48 / lookahead_threads=8 / sliced_threads=0 / nr=0 / decimate=1 / interlaced=0 / bluray_compat=0 / constrained_intra=0 / bframes=2 / b_pyramid=0 / b_adapt=1 / b_bias=0 / direct=1 / weightb=0 / open_gop=0 / weightp=0 / keyint=24 / keyint_min=13 / scenecut=40 / intra_refresh=0 / rc_lookahead=24 / rc=cbr / mbtree=0 / bitrate=16000 / ratetol=1.0 / qcomp=0.60 / qpmin=0 / qpmax=69 / qpstep=4 / vbv_maxrate=16000 / vbv_bufsize=16000 / nal_hrd=none / filler=0 / ip_ratio=1.40 / pb_ratio=1.30 / aq=1:1.000 a7 f5 {0 z- l; S3 {" T
Default                                  : Yes
# s8 S; e- m/ yForced                                   : No5 a. V7 c9 s& C( P$ q" @" \
Color range                              : Limited5 O/ Y) B$ H+ u. D
Color primaries                          : BT.709
- G% v$ |8 A$ E% n  P+ ^  a  dTransfer characteristics                 : BT.709. w5 k; c9 G2 P, ?) u
Matrix coefficients                      : BT.7099 l3 a6 p1 f3 c# R& O
Audio #1
8 P: r# }" Z& {4 Y3 q; oID                                       : 27 @, `7 y& \# z" p+ _
Format                                   : DTS XLL
+ b6 z8 O( a0 bFormat/Info                              : Digital Theater Systems3 }8 }: w' O  c* F* @/ x& M2 X( X  V
Commercial name                          : DTS-HD Master Audio  h) E& [& W. A8 t: N2 ^7 e
Codec ID                                 : A_DTS: l/ P. a$ P" K+ c  I. `
Duration                                 : 2 h 6 min
4 g" x3 @' F" |/ |9 ^9 e% UBit rate mode                            : Variable8 F: T/ z, H, J( z  }) z
Bit rate                                 : 4 923 kb/s
/ u5 s8 o4 _4 v! Z: I+ _Channel(s)                               : 8 channels, D' ^) A9 m/ I* k5 K( ?% q
Channel layout                           : C L R LFE Lb Rb Lss Rss
' O! I4 A  c8 p9 d1 J) ]Sampling rate                            : 48.0 kHz6 E) f' r! r2 V: l) q! |, X1 |
Frame rate                               : 93.750 FPS (512 SPF)
/ o( T7 @1 Y* `5 U& NBit depth                                : 24 bits. x$ K5 \1 c/ ]
Compression mode                         : Lossless
0 g, x6 G' W) m$ u" E, T8 B7 E% yStream size                              : 4.35 GiB (19%)
5 B( K4 o. e' [0 B4 s" NTitle                                    : DTS-HD MA 7.1- \2 i! O- U& z5 u7 E& D
Language                                 : English* ]( \" ?3 q- u; ~- e! Q
Default                                  : Yes  X5 x; G; v, n* M5 W$ S) a
Forced                                   : No! M# Q* U# f$ b. K) y
Audio #25 l4 a1 K- B  h
ID                                       : 32 B2 p9 w% h1 h4 A# C; ]
Format                                   : E-AC-3. o, s) V+ X7 B% _" e& ?* ]
Format/Info                              : Enhanced AC-3/ _8 I+ `% P5 t' \0 O
Commercial name                          : Dolby Digital Plus
% n8 }5 g# D. yFormat profile                           : Blu-ray Disc& R. C  p  J. h7 |' B- Y8 w
Codec ID                                 : A_EAC3
4 }5 T# U* f; n2 C4 ]! D: c( ^$ ]Duration                                 : 2 h 6 min
6 `* r; {: L/ L, v7 kBit rate mode                            : Constant+ Q6 O1 l9 E" j# H0 Q
Bit rate                                 : 1 024 kb/s
$ h* }  t, w- @" @  s, mChannel(s)                               : 8 channels/ W7 U/ g, A( |$ ]4 e- L) Z
Channel layout                           : L R C LFE Ls Rs Lb Rb* p6 ?" k1 G7 e4 b; \
Sampling rate                            : 48.0 kHz
, [* K9 ~% \4 _0 h2 t5 EFrame rate                               : 31.250 FPS (1536 SPF)
# d5 C7 P- \  }+ m. }& TCompression mode                         : Lossy) K" t' o% q5 c6 M, a7 Y& x7 g
Stream size                              : 927 MiB (4%)
, Q6 P& R$ c" N# L' x* ~Title                                    : DDP 7.1
5 r/ `7 c! Z0 ?# _% jLanguage                                 : French% ]7 ^  h2 \4 i% ]% ^- s
Service kind                             : Complete Main
8 _1 _3 e  \' P( X& ^Default                                  : No
$ W; ^8 ?6 x6 zForced                                   : No7 ^& q4 ?& E; s$ ]; C
Audio #3# j/ U. P$ ], y: j9 v" Z
ID                                       : 4
' ?5 }- }* d" k5 pFormat                                   : DTS
4 @: T0 U" S# }3 ]Format/Info                              : Digital Theater Systems
1 d2 J( K6 R$ ?6 \5 x$ ?" w6 GCodec ID                                 : A_DTS
( d8 H8 n; V! @9 G5 eDuration                                 : 2 h 6 min
1 V# j9 `8 Y$ ^+ nBit rate mode                            : Constant
$ l$ V) r2 X9 t1 y# n& m; kBit rate                                 : 1 509 kb/s% a+ m, V$ l# m3 Q: B7 }
Channel(s)                               : 6 channels6 e$ r4 Q" J- q) E
Channel layout                           : C L R Ls Rs LFE: a  f' Q  A' A2 y2 N
Sampling rate                            : 48.0 kHz) R  p' T( s! _9 Z
Frame rate                               : 93.750 FPS (512 SPF)2 B2 _) [/ J4 L5 t! w/ b1 F
Bit depth                                : 24 bits; U1 z& f- f2 \
Compression mode                         : Lossy
2 f5 n0 V5 ?, m3 y8 d( yStream size                              : 1.33 GiB (6%)/ N3 ^6 o$ }3 F0 k: d
Title                                    : DTS 5.1, J: e3 w% [9 i8 f+ p
Language                                 : Spanish$ z" z: L$ e+ f" {' f) D% ~
Default                                  : No1 k) z9 q( `; g
Forced                                   : No9 d  F5 h8 s9 n+ }7 c1 [+ D
Audio #4
$ C. p! S+ k  F# k4 X8 W; i5 G5 ZID                                       : 5
; \/ c5 ~: p" D) @; ?5 D. hFormat                                   : E-AC-3% [: {7 c9 D1 s
Format/Info                              : Enhanced AC-3
$ A$ S6 `' a) J+ w; Y' d) tCommercial name                          : Dolby Digital Plus
0 X# U  j- ^* J1 p/ d! l1 dFormat profile                           : Blu-ray Disc1 x- a0 O" M9 e0 x  B
Codec ID                                 : A_EAC3
5 p' r# X) }1 u; l# oDuration                                 : 2 h 6 min+ n( K- _' A( a% i0 Q4 y' O* R6 E
Bit rate mode                            : Constant
  Q1 D) R9 K  z/ XBit rate                                 : 1 024 kb/s
2 L) J5 y2 s: qChannel(s)                               : 8 channels
1 ^5 X0 A. e) ~$ ~+ P' YChannel layout                           : L R C LFE Ls Rs Lb Rb; W. z- [+ o2 k! p
Sampling rate                            : 48.0 kHz! w4 `8 s# R2 J! y
Frame rate                               : 31.250 FPS (1536 SPF)8 r3 G' M5 _0 w5 M% e4 [
Compression mode                         : Lossy
. j* n( u' Q0 l" w8 P6 ^( b4 \Stream size                              : 927 MiB (4%)! _8 D* l/ R0 z* B. E
Title                                    : DDP 7.1
5 v* P3 F1 W$ A. N0 M  M, D- \Language                                 : Italian9 r5 G! W+ A* \% d
Service kind                             : Complete Main
/ _. M" ~. y; O) {2 [; PDefault                                  : No
8 u8 e/ d6 ~0 m. K  Z% R+ y. ^Forced                                   : No" u; l4 `2 e- e, h: p8 ]
Audio #5, _, k2 ]/ G* Y" x' X
ID                                       : 6, B& k8 q) Q0 O$ R# L1 b
Format                                   : AC-3# X9 z4 `2 G, ~& B$ M- t$ ]
Format/Info                              : Audio Coding 3! z# M  k" U7 O3 M
Commercial name                          : Dolby Digital
3 s/ R8 C* p+ t/ q* B2 k9 J& rCodec ID                                 : A_AC3( v  z! D7 I! V$ y' ]- N2 g
Duration                                 : 2 h 6 min+ e5 J( j% c" Y) h, M% t
Bit rate mode                            : Constant
& {2 i' ^! t( b/ SBit rate                                 : 576 kb/s
4 c7 t7 U* s/ w9 dChannel(s)                               : 6 channels
3 V! ^, d1 K% I0 u& ?' X8 s6 @+ \3 TChannel layout                           : L R C LFE Ls Rs2 v+ _1 `6 v; [( D7 C" k
Sampling rate                            : 48.0 kHz
; e8 p7 }$ }* p- R- A$ ]Frame rate                               : 31.250 FPS (1536 SPF), @9 O+ @/ S: U& O3 e
Compression mode                         : Lossy' |6 F) H) p# O- l) ~" U2 X
Stream size                              : 521 MiB (2%)  O4 G- k3 _: u+ g) Q/ _% f
Title                                    : DD 5.1  I4 L6 _1 k2 E  f6 ]- I3 R
Language                                 : German& _! U0 Y+ E8 J+ H' V3 q1 h& W
Service kind                             : Complete Main
$ o3 k+ d) d( W1 l+ K  TDefault                                  : No. \$ S* a; _4 R- L1 r5 K) ]9 [
Forced                                   : No1 S# F# A, |+ _" ~9 N# l
Audio #6% y* b; _3 j8 J' d/ S- ~
ID                                       : 7
' x! V# T1 F' o" \6 IFormat                                   : DTS XBR
, \5 ]6 O" Q. A& X. X5 x! s6 G) t( ]Format/Info                              : Digital Theater Systems
3 k6 _# W/ v1 u1 u" A) S$ ~) RCommercial name                          : DTS-HD High Resolution Audio
6 O- ?8 e& a9 U3 l* B& wCodec ID                                 : A_DTS( @$ V4 \  m/ v; H, m7 a3 n
Duration                                 : 2 h 6 min
3 L8 ^% b+ u! H: Q& hBit rate mode                            : Constant
% K9 q. }0 V# U1 o& wBit rate                                 : 2 046 kb/s
7 q/ L4 N2 c$ H( E& u4 MChannel(s)                               : 8 channels
+ {3 A2 x9 {* h+ V. |' z7 y1 DChannel layout                           : C L R LFE Lb Rb Lss Rss; c7 @9 U, j& J" n
Sampling rate                            : 48.0 kHz- U0 ]9 |5 M- }4 N( g$ s
Frame rate                               : 93.750 FPS (512 SPF)
( Q5 j. O: o2 \" @3 TBit depth                                : 24 bits) k0 i0 `$ _  I
Compression mode                         : Lossy
6 l4 K- K7 m/ y6 n* B$ iStream size                              : 1.81 GiB (8%)
; m- r  {4 |: k5 lTitle                                    : DTS-HR 5.1' b3 M6 z; j2 }5 E5 e
Language                                 : Japanese
* ?! \9 F5 {2 x6 F0 g) Z# xDefault                                  : No
6 y) L- m0 ^0 _2 c; _Forced                                   : No. u# p! V1 e  {. H) |4 V* Z, A
Text #1
/ l  k3 t$ v' W6 l: cID                                       : 8* {0 _1 z) _0 a: O& @4 n
Format                                   : PGS
) V1 R5 q3 M7 p7 l  `1 mMuxing mode                              : zlib) @) F8 I1 |# d- a% P* i
Codec ID                                 : S_HDMV/PGS% {  k( M% X% G5 i. ]' t( [- n; Q
Codec ID/Info                            : Picture based subtitle format used on BDs/HD-DVDs
: r1 H/ {$ H, c0 B4 [Duration                                 : 25 min 9 s
3 t! l8 k8 T  ~9 YBit rate                                 : 886 b/s8 o5 G# ]2 Q9 `) t0 B
Frame rate                               : 0.013 FPS
- B2 C$ p/ o& D% J. JCount of elements                        : 20' [9 D7 w+ @2 H. M% ]* f
Stream size                              : 163 KiB (0%)
! ~6 e' _. X" ~$ M! lTitle                                    : FORCED$ D8 _* D( D$ w) \* }$ E
Language                                 : English
5 W! S' ]& |* m9 }6 R8 qDefault                                  : No6 ?/ _: c+ |& s; C8 @/ k# ~, s  Q
Forced                                   : Yes9 A: @2 D# \% U8 r+ z9 W! x; `
Text #23 `( u7 `1 A6 j$ d% h3 B1 [
ID                                       : 9% {+ h. N# w; o' O
Format                                   : PGS
  \/ b$ [" N& H( a, o1 U, u  NMuxing mode                              : zlib
5 w0 X6 h9 i) `! x" H% R+ B/ lCodec ID                                 : S_HDMV/PGS$ R' k8 X# L# ~4 h  q' |
Codec ID/Info                            : Picture based subtitle format used on BDs/HD-DVDs
7 D; ~: ?' d+ YDuration                                 : 2 h 5 min
) E' `: R1 Z0 p, s+ y" m4 ~Bit rate                                 : 23.9 kb/s
8 Q( i! q9 J5 ~( a: h9 CFrame rate                               : 0.333 FPS
5 O+ I6 X; q+ E; v. xCount of elements                        : 2498
/ ^% e8 C% V: X( R' CStream size                              : 21.4 MiB (0%)
0 K3 ^& A5 {3 ]: r2 FLanguage                                 : English4 M( T: z/ B1 X0 a7 k( {
Default                                  : Yes, Q2 n$ [* w# _4 b* u- C5 U& D
Forced                                   : No/ i0 W/ k  \5 l" W
Text #3. q: u" L2 }/ Q5 }* g, P6 @
ID                                       : 10  C  D& O. V% ]+ ^; x
Format                                   : PGS3 _; s; S. Y7 w2 y# A
Muxing mode                              : zlib" ?, W% r8 u# z/ Z9 j$ E: Z
Codec ID                                 : S_HDMV/PGS
. o, g& {4 z! k4 ^Codec ID/Info                            : Picture based subtitle format used on BDs/HD-DVDs
: i+ z7 y$ J( n5 XDuration                                 : 2 h 4 min4 ^7 R: L& w7 q8 N9 @, z0 }$ Q
Bit rate                                 : 289 b/s6 Q) I9 U* W0 q& ^  d
Frame rate                               : 0.003 FPS8 o4 r! t! q1 w: @: b, o* N9 g6 ?0 B
Count of elements                        : 25
0 M2 x6 x. o- Q0 C( kStream size                              : 265 KiB (0%)
" b' t, q: K6 mLanguage                                 : French
" @0 }! G6 r* ]) |7 a( A1 J/ F3 {Default                                  : No& F6 a/ m/ R( q7 M3 R& [  y6 B
Forced                                   : No
  _/ I5 G/ F# n" \: oText #47 Y9 H- f1 F) l
ID                                       : 11) g: Y- w. |- D. P% @0 D" l
Format                                   : PGS1 z2 J" T& _( t) X+ P! {4 e4 v
Muxing mode                              : zlib7 i0 q. o% p# i( V8 v
Codec ID                                 : S_HDMV/PGS; g4 t% C! k2 o
Codec ID/Info                            : Picture based subtitle format used on BDs/HD-DVDs
( a; ?6 C; R' A# f8 G* k: rDuration                                 : 2 h 5 min
% L5 z$ d8 G# ^- lBit rate                                 : 20.7 kb/s
. i5 O! a1 @# A4 R6 {Frame rate                               : 0.310 FPS: _# c1 V; {1 B3 I( y
Count of elements                        : 2331' j: A+ \% p8 r8 j1 f% \
Stream size                              : 18.5 MiB (0%)
6 l+ I; [: {5 E+ }" jLanguage                                 : French/ S; |6 {' C5 M1 K5 c, d
Default                                  : No' }/ _0 C- [8 Y; |0 m4 b! Y
Forced                                   : No0 r3 g9 y/ ~( E" \$ I. f6 n6 O% j
Text #57 [+ u9 V/ K1 _  I
ID                                       : 12: ?, W. q' l6 R/ P& l4 \  f# H
Format                                   : PGS
0 I3 V. J: p; W# JMuxing mode                              : zlib
0 L8 A( G  S# k" N/ \Codec ID                                 : S_HDMV/PGS* r3 }7 T% k' {) Z7 L6 F
Codec ID/Info                            : Picture based subtitle format used on BDs/HD-DVDs: }7 u4 j: i% U& j; [. A' X8 B
Duration                                 : 1 h 39 min3 q* f8 O3 @9 |) s' N
Bit rate                                 : 347 b/s! U: Z# t2 r+ w
Frame rate                               : 0.004 FPS
# Z8 ^& ^" z& M& R4 MCount of elements                        : 21
! S4 ~  ?! P9 c+ zStream size                              : 254 KiB (0%)
7 f3 v( ?4 X3 K% G* ALanguage                                 : Spanish
5 L) T& f# {4 `- `! M8 P  LDefault                                  : No& n+ z! z' @. ]7 A7 U( R) m
Forced                                   : No
7 e0 ^8 U; l2 X* b; ~; u; RText #6  X* F4 O, p7 A* X" h
ID                                       : 13
& _' q7 m9 X! L3 q* i: zFormat                                   : PGS6 _+ L  p1 p2 P+ w
Muxing mode                              : zlib" M  R: \  w" o+ v& t7 }& v  b
Codec ID                                 : S_HDMV/PGS
% a: \, ]( `) l4 I: ^2 ^8 iCodec ID/Info                            : Picture based subtitle format used on BDs/HD-DVDs3 e0 G- F8 W9 F; r5 a2 R+ d; g
Duration                                 : 2 h 5 min, m# e9 U; P9 b2 l7 q
Bit rate                                 : 22.6 kb/s" Y- M+ @4 b+ R: r+ @
Frame rate                               : 0.333 FPS9 r! H- w# _0 L5 q! q6 r4 D
Count of elements                        : 2497
2 l7 J/ K2 ?7 RStream size                              : 20.2 MiB (0%)# d# C6 d* F1 ]' e- c' M
Language                                 : Spanish
$ a, k6 Z/ n) \3 G. HDefault                                  : No3 d: @: p) B+ u  l# C! C, O
Forced                                   : No
7 }) c; f1 ~& K8 E4 c  \/ I! lText #7
+ M6 A6 y" u! o% }- {% \0 sID                                       : 14
  ~8 p1 L4 G( V8 D4 [1 |Format                                   : PGS5 X8 p' c( ~% q  k" N: A  A, f$ y  x( l, O
Muxing mode                              : zlib+ D. f6 }' t6 w
Codec ID                                 : S_HDMV/PGS
, U, }3 F3 j$ W% N) m9 N! XCodec ID/Info                            : Picture based subtitle format used on BDs/HD-DVDs
5 ~8 s/ \3 A1 p2 r( \Duration                                 : 2 h 4 min
+ {+ \1 M) _- A* `/ a6 r5 Z/ XBit rate                                 : 292 b/s' k5 b5 W6 F4 |% f' Q- C: O
Frame rate                               : 0.004 FPS- F& L2 e( v" n! I
Count of elements                        : 27
9 ^4 A" O2 v  U5 C% G! C% u) @Stream size                              : 267 KiB (0%). w3 o$ r+ ^1 _- n- M6 ]) O# C
Language                                 : Italian
: i9 B$ C8 s3 {9 P7 BDefault                                  : No% z9 @9 l6 t2 ]( l& h# q
Forced                                   : No
" K9 x) ^8 E, W8 |: _4 BText #8: M. _5 T8 k" e; t7 L! z3 e3 s
ID                                       : 15/ F" A+ _' @/ s  p9 G) h3 Y: g
Format                                   : PGS
3 R2 M. ~6 l+ e6 ]+ ~9 HMuxing mode                              : zlib
# g2 X/ f/ k: t, p  C3 ~Codec ID                                 : S_HDMV/PGS, i1 a- Z$ H1 P3 `
Codec ID/Info                            : Picture based subtitle format used on BDs/HD-DVDs
$ u" o/ i$ ?, p) k9 N. z8 HDuration                                 : 2 h 5 min8 y( ~! f7 S* M
Bit rate                                 : 24.3 kb/s
0 e4 u. J5 U* W+ z/ f& @Frame rate                               : 0.336 FPS& L3 n( ~" h& ?' p5 `, ^% U
Count of elements                        : 2521
9 [' `8 q) X' p" u+ H# w& s3 wStream size                              : 21.8 MiB (0%)3 u6 c3 E2 X8 l6 D0 i& b' g( I  f
Language                                 : Italian# a8 z4 t" B' P7 L( P( r
Default                                  : No
3 L  d6 B' I, n- sForced                                   : No
+ U6 F. k+ Y  f9 aText #9
* u5 Y2 t, c  YID                                       : 16
9 l  |$ P6 i0 [$ D" Q5 lFormat                                   : PGS8 `8 V$ J) x2 k6 Q$ F7 Z; M0 A
Muxing mode                              : zlib; P& R/ A- r* E: K8 M) y  V4 A6 I
Codec ID                                 : S_HDMV/PGS! |8 f: j: k+ E4 Y
Codec ID/Info                            : Picture based subtitle format used on BDs/HD-DVDs6 w- l  n1 Q2 R% F+ y2 q* X
Duration                                 : 2 h 4 min
* L  G4 \6 x% N: vBit rate                                 : 246 b/s
0 d  _) D' n% \. GFrame rate                               : 0.003 FPS
, R3 n- _% W2 W7 dCount of elements                        : 23% Y' d7 ?+ o: g- T' f' A* {3 c
Stream size                              : 226 KiB (0%)
- D5 g) j# t4 O) h% s: SLanguage                                 : German
$ f/ D9 f. k+ Q+ LDefault                                  : No" m: D/ h+ Y8 K0 V* F
Forced                                   : No
, d* b6 [5 Y6 X# d( f* bText #10. Q' f7 i; t" I9 ~5 T, r1 _3 V
ID                                       : 17( I4 l: w: G7 s4 ~
Format                                   : PGS8 U0 l/ W9 p  m, g
Muxing mode                              : zlib
, D4 Z, m5 v2 CCodec ID                                 : S_HDMV/PGS3 o0 z% x2 ?# ~
Codec ID/Info                            : Picture based subtitle format used on BDs/HD-DVDs
8 V% L4 k8 \( L* a6 FDuration                                 : 2 h 5 min8 }' c- q7 V! B. f4 K' P
Bit rate                                 : 22.4 kb/s1 Z' u, f' n; h( K! [
Frame rate                               : 0.306 FPS
( }. b7 r% Q7 n. vCount of elements                        : 23016 M6 |9 Q; g) A5 R  }8 K4 K
Stream size                              : 20.0 MiB (0%)* R* R' D, u8 ^$ m0 ^
Language                                 : German! a7 [( \1 P) Z1 o
Default                                  : No, G" ~$ v5 A6 X4 D, ?
Forced                                   : No
" z2 c+ o/ b: i0 I. b6 s+ |( ?" {Text #113 c) W) M5 C6 a9 Z! F% P: W& i
ID                                       : 18
4 z/ A: b9 O: M: o5 DFormat                                   : PGS5 M/ z' b: r& r# C& j# S3 E
Muxing mode                              : zlib- m, P1 b, [, m/ d* G, J3 G
Codec ID                                 : S_HDMV/PGS
+ Q0 n9 d4 V. h, \$ J/ |& tCodec ID/Info                            : Picture based subtitle format used on BDs/HD-DVDs! P2 C9 ~  c2 w. M
Duration                                 : 2 h 5 min# U" Z2 F! I( r0 h! Q! k1 Y
Bit rate                                 : 22.7 kb/s
- X( m" k# [1 CFrame rate                               : 0.269 FPS6 w" h0 |" k. B) O
Count of elements                        : 2023
2 m+ D5 A4 n0 w' Z+ d7 q- xStream size                              : 20.3 MiB (0%)
) |6 d6 y+ T- [# }3 ZLanguage                                 : Dutch0 @" |1 \* g( l
Default                                  : No& X% ^! s% Q  q. |( [; Y; [& k
Forced                                   : No
( C- ~. X. }0 ^1 ], C+ {" X' e( NText #12. Q1 L/ U* w& ]0 ~' M! Z
ID                                       : 19+ ~$ v1 D# T0 f8 Q
Format                                   : PGS
: @* Q4 v- o6 ~# lMuxing mode                              : zlib) [& I+ l+ M6 r  G+ k# J
Codec ID                                 : S_HDMV/PGS
1 D' A) N0 O- X" A: o! \2 {Codec ID/Info                            : Picture based subtitle format used on BDs/HD-DVDs
+ I+ B# S" g2 B6 |4 o& M4 NDuration                                 : 2 h 5 min
) t/ k- A8 E2 A% bBit rate                                 : 19.7 kb/s" @2 t  I6 r9 |% H/ h
Frame rate                               : 0.217 FPS
& U; H% T9 ?) m' zCount of elements                        : 1631
' r4 \7 d9 _( w) n, j8 x' V- o& oStream size                              : 17.7 MiB (0%); p6 K5 x' @" x. N( W, O2 q
Language                                 : Danish
3 k$ V2 {$ V' o$ T- ODefault                                  : No, Z. s/ F7 p5 J' [: N$ n- x/ ~, K
Forced                                   : No
3 w5 g: V0 r+ X) V. rText #135 M( A2 P1 r( [4 J8 b# q" J: t
ID                                       : 20
/ f; Z5 {) `+ D! kFormat                                   : PGS8 _5 ?! `" A& ]$ z; ]6 O0 n7 l. D
Muxing mode                              : zlib; a6 ~5 K) g! t4 Y& @# d
Codec ID                                 : S_HDMV/PGS
/ |( K$ u" @) s% C4 eCodec ID/Info                            : Picture based subtitle format used on BDs/HD-DVDs! E) \' R: C8 B! m0 k" l
Duration                                 : 2 h 5 min9 _  m% s: Z3 @# U3 w& ~) k
Bit rate                                 : 24.0 kb/s
- B* `! S: S. IFrame rate                               : 0.332 FPS$ V4 Y) k. U' N/ J! O
Count of elements                        : 2493' b4 L+ C2 @+ C: N# D9 [0 X
Stream size                              : 21.5 MiB (0%). {+ r2 Y3 S! i- f8 ~+ j
Language                                 : Finnish
( m* L6 v8 }8 j  U) \& DDefault                                  : No
' g& b  m) n+ V- [7 P3 f& U& IForced                                   : No0 \1 ^/ H& f3 q0 h
Text #14
& |- s5 h  r" _" rID                                       : 21
! E3 `+ Q3 {2 x; m: e6 N6 f5 R3 B; K7 wFormat                                   : PGS
$ I6 r- V+ x4 O5 W" \  wMuxing mode                              : zlib
6 j- u2 M/ d5 L1 P( }. r; aCodec ID                                 : S_HDMV/PGS) n- T0 ?  t$ F# Y9 G' ~
Codec ID/Info                            : Picture based subtitle format used on BDs/HD-DVDs
+ K1 h2 L0 J7 m0 |5 q4 yDuration                                 : 2 h 5 min( x4 P% \3 L, Q( M) m. w
Bit rate                                 : 21.5 kb/s
4 F6 x& q+ ]& aFrame rate                               : 0.336 FPS  K( b- T; J0 B7 ?( Q  T
Count of elements                        : 2523, Y/ l+ e: y( U7 B  ~1 r8 |. [
Stream size                              : 19.3 MiB (0%)
0 Q6 M6 c$ k3 S) r5 ~* [% dLanguage                                 : Norwegian! [( q4 K9 i( X8 a# j" Y
Default                                  : No' O% ?  z/ n( s4 N3 G- _! R3 c7 ^% K- M" f
Forced                                   : No& _! X& f; ]9 R* f0 B% A
Text #15
+ q/ ^* d. X, s3 Z5 N2 [ID                                       : 221 k) ~) a- h- ^7 ~) Y
Format                                   : PGS7 i, \% G" \4 C% M& c
Muxing mode                              : zlib
% N5 f7 V1 v2 u1 ?0 x9 `Codec ID                                 : S_HDMV/PGS
3 o2 _, c' o* O/ wCodec ID/Info                            : Picture based subtitle format used on BDs/HD-DVDs- m: d# U# w3 ?* l' b* V* p
Duration                                 : 2 h 5 min
2 u% ]) O& w) s) l3 @* o, NBit rate                                 : 21.4 kb/s
  o& U1 n8 t( N4 J0 lFrame rate                               : 0.253 FPS
* o0 j: P7 H0 m% \0 |2 ICount of elements                        : 1899
( `- _4 y) P$ m+ h, u3 v  FStream size                              : 19.2 MiB (0%)
% e6 M1 Z9 J/ Q# o' y) NLanguage                                 : Swedish* [! u* d' a$ x
Default                                  : No6 y; `/ \4 I6 t6 I
Forced                                   : No" T; L8 r. e! u& x- @8 h& M
Text #16( z) p1 f$ O! K$ i$ i0 c# g" Z6 ~
ID                                       : 23
0 p5 E/ d& m* ~# YFormat                                   : PGS
( k/ r! u, F4 ^- q* [Muxing mode                              : zlib
7 }" n. P# H7 o" S) p* CCodec ID                                 : S_HDMV/PGS
3 U3 L' `* S7 `9 x1 k0 ]' C( U* PCodec ID/Info                            : Picture based subtitle format used on BDs/HD-DVDs8 ~4 Q( {* `+ h. x$ o# z
Duration                                 : 2 h 5 min
" {+ k4 Z" s0 t; _) ^& Z8 C# hBit rate                                 : 27.5 kb/s
& r* i4 ?  A% @, D2 e+ LFrame rate                               : 0.313 FPS
! v! m) m- Y/ P7 I: k& OCount of elements                        : 2354: F" i% E4 s  d0 z4 R
Stream size                              : 24.7 MiB (0%)7 ]/ ^1 h9 x: D* `1 }
Language                                 : Japanese. c9 i* V4 s. u' l* h! V
Default                                  : No
' w* W8 f, @5 P  x/ GForced                                   : No" e. M! |8 s' b% {+ U1 N
Menu #1- u; o2 g! s! j. w: O1 s$ U8 m
00:00:00.000                             : en:Chapter 01* j& c, R# J1 ]
00:03:51.397                             : en:Chapter 02
$ r7 x8 G2 j- a00:08:26.506                             : en:Chapter 03
9 {5 U( t3 D( X% t  q) j8 g00:14:19.441                             : en:Chapter 04% e8 [6 e/ y" t# ]
00:18:23.060                             : en:Chapter 056 x/ I1 b$ |; W
00:24:37.559                             : en:Chapter 068 K9 J4 i# w, `( g
00:37:58.150                             : en:Chapter 07
" W# j- J4 E% ^* w* n, c' H00:47:15.499                             : en:Chapter 080 S. a' E( o1 T# D  ?% D# e9 V4 `
00:50:03.542                             : en:Chapter 09
& R5 S- E( \) n00:55:51.056                             : en:Chapter 10
8 O+ h  t# Z5 p% G. i00:59:46.332                             : en:Chapter 11
) y* S: o: ]( M& H& Y8 H01:02:19.652                             : en:Chapter 128 q. d9 u; L# A0 n$ W
01:05:18.414                             : en:Chapter 13
8 U8 s8 g1 n- |* l2 O01:07:20.786                             : en:Chapter 14. Q/ @  F, j" f8 w% q! ?" g
01:15:03.582                             : en:Chapter 15
7 M9 \- B" _  M& W5 Y01:17:01.867                             : en:Chapter 16
9 r# u/ E: v2 J( w1 \& T' O01:19:18.420                             : en:Chapter 17
- v% z/ f! t) B; i01:23:29.337                             : en:Chapter 187 x( P& F9 ]9 g) t! f
01:26:34.189                             : en:Chapter 19
5 a2 `7 p/ E3 T0 d1 K8 }2 y; N01:28:51.326                             : en:Chapter 20$ a* O0 X9 z3 g) M9 B
01:34:47.264                             : en:Chapter 21; C$ u9 D" A! b" N& v
01:37:38.644                             : en:Chapter 222 f4 u1 W& ^! X
01:41:27.623                             : en:Chapter 236 w) E$ ^; M' M" Y9 M7 j9 {
01:51:03.281                             : en:Chapter 24: X$ n7 l7 m: y1 `* F) @0 O
01:53:26.466                             : en:Chapter 25
# n: V8 x" y! c8 S' P- ~/ C7 j01:55:38.848                             : en:Chapter 26
% `' M7 t7 L. y% \01:56:32.068                             : en:Chapter 27# I, M9 k+ T7 m) q' W1 E( ]$ T
01:58:48.371                             : en:Chapter 287 J3 H  f+ w) ?5 X
01:59:26.659                             : en:Chapter 29
3 x  b* K: P, I- r/ R2 y2 IMenu #2
' D2 H9 f+ z: U, _! F00:00:00.000                             : en01)00:00:00:000
* ]* a& c" V: g3 X6 e4 q' m00:03:51.397                             : en02)00:03:51:397
; `* S: b' n* t4 {7 X" H+ r9 p9 B00:08:26.506                             : en03)00:08:26:506
5 s( g8 }1 B0 w! D) n- d8 M00:14:19.441                             : en04)00:14:19:441, b. v2 r% D; l5 ~! @* T' b& _1 R
00:18:23.060                             : en05)00:18:23:060
" D+ |% Z: p( b3 ^/ R0 `3 k% Y# N4 \00:24:37.601                             : en06)00:24:37:601% ^9 m- L8 \& f8 x, z6 a# D( T
00:37:58.150                             : en07)00:37:58:150
) g3 c( T% `7 S- e5 [! W1 N00:47:15.499                             : en08)00:47:15:499
* y  R# R8 K: n/ O" O00:50:03.542                             : en09)00:50:03:542
! l! b) |* Y' G5 x+ d" M: K; G00:55:51.056                             : en10)00:55:51:056' A% U* @; f* e2 U
00:59:46.332                             : en:(11)00:59:46:332: K: t$ Q* ~$ i: d- g0 F
01:02:19.652                             : en:(12)01:02:19:6529 `2 E" R8 ^4 V
01:05:18.414                             : en:(13)01:05:18:414
( x' C( l2 L7 O' H8 t) e8 `  w01:07:20.786                             : en:(14)01:07:20:786" Y8 @9 Z6 A0 d8 ~$ [  B2 f5 O$ c& T
01:15:03.582                             : en:(15)01:15:03:582
; U* m& }+ H# G6 U% i. i* s01:17:01.867                             : en:(16)01:17:01:867# F2 A' {/ z/ X7 f6 [' H
01:19:18.420                             : en:(17)01:19:18:420
6 w4 {4 [1 o- B6 ]; `) P01:23:29.337                             : en:(18)01:23:29:337: x4 q' H) v4 m7 D/ S. ?4 L+ E
01:26:34.189                             : en:(19)01:26:34:189' z, p+ Z' s. `" m
01:28:51.326                             : en:(20)01:28:51:326# e. U* x( d  t4 ?( K$ |
01:34:47.306                             : en:(21)01:34:47:306
0 |6 {: i5 |' b, ^0 E7 H01:37:38.644                             : en:(22)01:37:38:644: o/ n$ Y6 `1 H: W2 N8 }
01:41:27.623                             : en:(23)01:41:27:623
' E0 u  V& m" p# N1 B01:51:03.281                             : en:(24)01:51:03:281
& Y0 z4 \( ?6 z& v" O01:53:26.466                             : en:(25)01:53:26:466
# g" K7 \6 k. a; @& @! a6 d6 N* \01:55:38.848                             : en:(26)01:55:38:8487 M8 `, Q$ O" x( a* O# k
01:56:32.068                             : en:(27)01:56:32:068
8 U! F" k! k7 t* R( Q$ R3 z) |01:58:48.371                             : en:(28)01:58:48:371/ J( x/ l5 p* g6 M% m
01:59:26.159                             : en:(29)01:59:26:159
& z, P; a' {  I# e6 S02:06:30.958                             : en:(30)02:06:30:958

& f' s7 q( [3 b/ t' O9 b: P蓝光高清网提示您 点击下方附件名称 即可开始下载: {6 L, k# _  {

9 Q3 A& \9 g. O8 k6 v" o. N9 k  A多版本下载时请注意区分
. W; L4 U( q4 m! e  F3 E

& \0 C; y! N/ v: b& t% j奇异博士2:疯狂多元宇宙 Doctor.Strange.in.the.Multiverse.of.Madness.2022.1080p.3D.BluRa.x264.DTS-HD.MA.7.1-3D原盘电影下载$ d$ [, ~& l3 J/ ]$ C, p
" \+ i& g/ W6 h* A/ L: I! G; G8 A
奇异博士2:疯狂多元宇宙 Doctor.Strange.in.the.Multiverse.of.Madness.2022.1080p.3D.BluRay.Half-OU.x264.DTS-HD.MA.7.1-FGT 22.88GB
3 \( K# t; K/ W! \

Doctor.Strange.in.the.Multiverse.of.Madness.2022.1080p.3D.BluRay.Half-OU.x264.DT.torrent ( 29.32 KB )

9 z7 ^% L3 N, G8 Z* B( O

0 H6 X8 j+ |! j+ i& v' |奇异博士2:疯狂多元宇宙 Doctor.Strange.in.the.Multiverse.of.Madness.2022.1080p.3D.BluRay.Half-OU.x264.TrueHD.7.1.Atmos-FGT 23.06GB3 S- l5 k. i0 P# S' @% t

Doctor.Strange.in.the.Multiverse.of.Madness.2022.1080p.3D.BluRay.Half-OU.x264.Tr.torrent ( 29.54 KB )


& j$ z$ e" _0 }5 s2 ^5 {

+ Z- n+ S4 X6 l3 h2 ?) d奇异博士2:疯狂多元宇宙 Doctor.Strange.in.the.Multiverse.of.Madness.2022.1080p.3D.BluRay.Half-SBS.x264.TrueHD.7.1.Atmos-FGT 22.00GB
4 ^" N8 J2 Z+ q3 N  L: \

Doctor.Strange.in.the.Multiverse.of.Madness.2022.1080p.3D.BluRay.Half-SBS.x264.T.torrent ( 28.21 KB )


6 H. V6 O; N6 d7 O
  `1 L( n! o) M1 Z
奇异博士2:疯狂多元宇宙 Doctor.Strange.in.the.Multiverse.of.Madness.2022.1080p.3D.BluRay.Half-SBS.x264.DTS-HD.MA.7.1-FGT 21.82GB9 G0 `* g. H0 l# B+ J4 m

Doctor.Strange.in.the.Multiverse.of.Madness.2022.1080p.3D.BluRay.Half-SBS.x264.D.torrent ( 27.99 KB )


, u2 _$ V2 V. `1 P/ W7 m  S
  z3 s0 S2 B7 H) T! |" ^
6 z% y2 \8 I% k
加入蓝光高清网VIP会员  无限制下载本站所有资源---点这里

资源下载、资源播放、字幕使用、无法下载等常见问题---点这里
回复

使用道具 举报

全部回复0 显示全部楼层

发表回复

您需要登录后才可以回帖 登录 | 立即注册

本版积分规则

开通会员 帮助中心 返回顶部 返回列表