本站已运行

蓝光高清网

搜索
开启左侧

蜘蛛侠:英雄无归 Spider-Man.No.Way.Home.2021.1080p.3D.BluRay.x264.TrueHD.7.1.Atmos-3D原盘电影下载

蓝鸟 发表于 2022-10-26 11:31:35 | 显示全部楼层 |阅读模式
蜘蛛侠:英雄无归 豆瓣评分: 6.6分
片长: 148分钟 ( 2021年上映)
类型:动作 科幻 奇幻 冒险 
导演:乔·沃茨
主演:汤姆·赫兰德 / 赞达亚 / 本尼迪克特·康伯巴奇 / 雅各布·巴特朗 / 托比·马奎尔
3 D 格式:half-ou sbs 

封装音轨:DTS-HD.MA 7.1 Dolby TrueHD 7.1 Dolby Atmos 
简       介
" s+ l8 L2 G+ [) d( t: n% K; z
! g% ^( z$ E& w0 j% Y! V  《蜘蛛侠:英雄无归》是英雄系列三部曲的完结篇,也标志着漫威多元宇宙的正式开启。此次,蜘蛛侠(汤姆·赫兰德 饰)与奇异博士(本尼迪克特·康伯巴奇 饰)继《复联4》后再度联手打响时空混战。蜘蛛侠借助奇异博士操控时空的能力打开了时空通道,引发了前所未见的危机。
0 Q3 g7 a) z7 }- f; y+ g5 [
$ ~) N( |1 m- U影片参数
Video0 z9 @. @8 W7 `4 b' D) ~
ID                                       : 1  ?7 V6 J2 s* U% I/ M
Format                                   : AVC- N$ q0 r1 Y  S' C2 Z6 A8 h6 ~9 X
Format/Info                              : Advanced Video Codec! t6 S  X0 \, J- ?+ f6 N. G
Format profile                           : [email protected]' I! y5 b. {5 W. y$ ?
Format settings                          : CABAC / 2 Ref Frames
/ t+ f8 t& m* D6 O1 L0 A& z0 c, ~$ nFormat settings, CABAC                   : Yes4 n* }7 m5 ?$ j0 J7 K/ `6 b$ }) \
Format settings, Reference frames        : 2 frames6 ]& w9 D5 @* p+ s( E2 X
Codec ID                                 : V_MPEG4/ISO/AVC
( `/ I  \( \2 B8 X2 R$ dDuration                                 : 2 h 28 min
4 q" }( s9 R: a* T6 L% lBit rate                                 : 14.9 Mb/s
6 I8 k$ \1 g  `0 Q; uNominal bit rate                         : 16.0 Mb/s
( z) e' O6 }4 GWidth                                    : 1 920 pixels# J' z8 X1 X* e" Z. z; Q6 F: N+ [
Height                                   : 1 080 pixels
" r. B. Z" v' N# d! }Display aspect ratio                     : 16:9
. p8 L4 W2 n8 X6 u+ bFrame rate mode                          : Constant) |# p! r. J) {2 _6 i$ V# ?. a
Frame rate                               : 23.976 (24000/1001/189150) FPS
3 w+ }  o1 I' s2 y# F7 zColor space                              : YUV
( j4 R. j: K' ]) w8 ~Chroma subsampling                       : 4:2:0
  U* n- u) a  Z( s, y2 S" {9 fBit depth                                : 8 bits6 g1 a! r9 h/ }
Scan type                                : Progressive; O+ |0 T- X2 e9 Z
Bits/(Pixel*Frame)                       : 0.300
" u1 [4 R* B% ?; K: TStream size                              : 15.4 GiB (73%)9 I+ B& V+ s! n
Writing library                          : x264 core 148$ D9 o7 h$ j) l4 s0 Q$ p' p
Encoding settings                        : cabac=1 / ref=1 / deblock=1:-1:-1 / analyse=0x3:0 / me=hex / subme=5 / psy=0 / mixed_ref=0 / me_range=16 / chroma_me=1 / trellis=0 / 8x8dct=1 / cqm=0 / deadzone=21,11 / fast_pskip=0 / chroma_qp_offset=0 / threads=48 / lookahead_threads=8 / sliced_threads=0 / nr=0 / decimate=1 / interlaced=0 / bluray_compat=0 / constrained_intra=0 / bframes=2 / b_pyramid=0 / b_adapt=1 / b_bias=0 / direct=1 / weightb=0 / open_gop=0 / weightp=0 / keyint=24 / keyint_min=13 / scenecut=40 / intra_refresh=0 / rc_lookahead=24 / rc=cbr / mbtree=0 / bitrate=16000 / ratetol=1.0 / qcomp=0.60 / qpmin=0 / qpmax=69 / qpstep=4 / vbv_maxrate=16000 / vbv_bufsize=16000 / nal_hrd=none / filler=0 / ip_ratio=1.40 / pb_ratio=1.30 / aq=1:1.00
9 I2 ^7 k8 M2 B4 v$ Y7 hDefault                                  : Yes
3 `: [: O/ |' t* }0 ?$ KForced                                   : No
9 r* o+ i+ A" }$ C4 r: }Color range                              : Limited
) O: F2 V: }6 ?' ]% H) b9 X; LColor primaries                          : BT.709
. k6 p- m" y, F" P0 FTransfer characteristics                 : BT.709
/ x2 ^8 h. d/ K  m8 dMatrix coefficients                      : BT.709
, _6 C& Y' Y4 B" k% u! N3 MAudio #1" P1 R( Z$ b7 O8 V: G+ f
ID                                       : 2
3 S/ [5 m' H% x& D  S0 nFormat                                   : DTS XLL, B: j3 R# E6 y
Format/Info                              : Digital Theater Systems
$ c  ]( A9 s8 _! l/ c& H2 P4 A3 gCommercial name                          : DTS-HD Master Audio
% ]4 S3 F- o& DCodec ID                                 : A_DTS
# Z% F# Q  Z' V) t& _6 X# ?. ~" WDuration                                 : 2 h 28 min0 L, W+ |6 a) S) ?' X
Bit rate mode                            : Variable
) f$ x% y* \7 _+ t+ g" aBit rate                                 : 3 851 kb/s
& E  J$ B* J2 @; ZChannel(s)                               : 8 channels
$ N+ R0 Q( w/ V2 MChannel layout                           : C L R LFE Lb Rb Lss Rss
# \( T7 z7 E7 [Sampling rate                            : 48.0 kHz3 p3 x  }& Q- d
Frame rate                               : 93.750 FPS (512 SPF): S4 b/ F4 ^) p9 P3 h1 B
Bit depth                                : 24 bits" v" w1 |3 z  Y/ ]; l( W- ~
Compression mode                         : Lossless
% u) W; X  J* d0 q6 gDelay relative to video                  : 4 ms# n1 Y% v% I( I, i9 ]2 j* x% _
Stream size                              : 3.99 GiB (19%)
# A  h( h2 ~  U2 X5 oTitle                                    : DTS-HD MA 7.1
! Y8 w% g8 L2 L% HLanguage                                 : English
4 z- e+ ^3 q/ ?( \6 s& R3 o/ j  EDefault                                  : Yes6 |3 s; F! n) {) t3 l. b1 e& j" |
Forced                                   : No$ G" O/ t9 q- C+ J$ `6 u
Audio #2
% F- z! p8 l! Z4 o# `* U: zID                                       : 34 p+ Y! {9 T6 H0 K, L4 }1 p+ Z
Format                                   : DTS XLL
; X1 H! h8 @& v% v2 H1 E$ qFormat/Info                              : Digital Theater Systems
* k& p2 p" n. ?9 d7 W; E. R) HCommercial name                          : DTS-HD Master Audio
$ y/ O% _& [$ v' h2 ]/ [Codec ID                                 : A_DTS" Z; V# ^" x4 r! r& l4 e7 a7 `+ b
Duration                                 : 2 h 28 min
! I1 w" d3 l8 O$ XBit rate mode                            : Variable
# {2 E% T2 H" x2 ^3 D+ m0 o7 J: KBit rate                                 : 928 kb/s5 K! V8 M- G8 C3 X
Channel(s)                               : 2 channels
. _9 X$ D1 N8 Z2 J6 AChannel layout                           : L R
! {4 T/ @0 c2 B8 f; j( I+ NSampling rate                            : 48.0 kHz
: T& A" P5 W( i6 I% W% xFrame rate                               : 93.750 FPS (512 SPF)
$ c& n6 c5 C9 B1 DBit depth                                : 16 bits
* h9 y# }  E; {Compression mode                         : Lossless
6 Q# x, K4 b' R% G# YStream size                              : 983 MiB (5%)- \  M0 c3 \+ P% [% Q8 t. d
Title                                    : DTS-HD MA 2.0: u: U. L3 E; W
Language                                 : English4 G7 w. Y% f7 S+ G
Default                                  : No6 Z" C- H) I  b4 w* |2 c: D$ R
Forced                                   : No
1 a9 N7 J0 q/ R5 hAudio #3
( J3 D# a4 H# f  W4 x7 BID                                       : 4
8 v* Z/ d6 |" S' iFormat                                   : AC-3: K3 W$ w0 ~0 o- F" x6 R
Format/Info                              : Audio Coding 37 F5 |& O5 v8 @/ p9 n5 j% a* q+ E
Commercial name                          : Dolby Digital
+ ]4 Q- s" }1 o0 W. a* fCodec ID                                 : A_AC3
7 l+ j; l$ [( ~2 H, X, [( d3 ~: UDuration                                 : 2 h 28 min
& S0 ]0 a% @- L6 j4 a8 e, xBit rate mode                            : Constant6 d5 E% i' V& b- T1 D4 \7 ]
Bit rate                                 : 640 kb/s
2 c) Q: A+ N; `" G' y( ~# IChannel(s)                               : 6 channels9 ?9 U8 s, m* ]% y0 ~: O8 Y
Channel layout                           : L R C LFE Ls Rs
# H: H9 r; d0 Z# }1 f. S! L. o& O* @8 MSampling rate                            : 48.0 kHz
, ~0 \7 |. D, \+ yFrame rate                               : 31.250 FPS (1536 SPF)
+ _5 }' t1 F  i' X) Y, QCompression mode                         : Lossy" Y$ `# f: D6 d) N: u3 f
Stream size                              : 678 MiB (3%)% N' \& P4 w- l3 Y7 ~
Title                                    : DD 5.1
+ a9 C& E, z+ Y# Z9 z5 E. U0 _; V. sLanguage                                 : English$ w6 d0 v' v. T. i. E! k( n
Service kind                             : Complete Main
. {; g" g8 \# I3 U0 @8 T. ?1 WDefault                                  : No4 C# k& ^1 |+ V( u- J
Forced                                   : No8 Z! B6 h7 }: j4 J
Text #1
4 W9 {- [5 F4 Q0 {& D, v# R9 OID                                       : 5
/ [6 h2 m( g3 e3 K0 L/ E$ j2 gFormat                                   : PGS6 u1 ^. a1 X% k' V2 a( z9 n
Muxing mode                              : zlib
  l$ z1 o% Q- E3 n7 j. ^Codec ID                                 : S_HDMV/PGS  i0 e/ Y9 }/ y  n
Codec ID/Info                            : Picture based subtitle format used on BDs/HD-DVDs
' H/ V/ z6 c/ u0 C. \0 uDuration                                 : 2 h 27 min
1 q+ C- l- h/ O( aBit rate                                 : 49.8 kb/s0 I4 t% [) s0 U
Frame rate                               : 0.496 FPS* S; X4 B6 P- ^+ p
Count of elements                        : 4402
2 R- \% b& ?: p! a  \4 pStream size                              : 52.7 MiB (0%)# Z7 z7 H9 B2 }2 m! M! [
Language                                 : English
* K, Z- e3 w7 u# TDefault                                  : Yes' e0 ^, H. V8 U9 _4 u6 G
Forced                                   : No5 M! r6 l7 V: x/ |9 m$ h
Text #28 r" n6 O  A9 j7 H  ~6 ?/ [
ID                                       : 6! J. Y5 W# y1 I8 C
ID in the original source medium         : 4610 (0x1202)2 o, _* q4 ~, s% S; s3 f( F7 `6 O
Format                                   : PGS
' }% U$ F) |; EMuxing mode                              : zlib
3 H# J; @7 D( u# S$ S  f) TCodec ID                                 : S_HDMV/PGS/ ]# ?7 o: x9 R4 g
Codec ID/Info                            : Picture based subtitle format used on BDs/HD-DVDs
, W" e1 n+ r5 xDuration                                 : 2 h 27 min; z: \  [0 [+ ?$ x
Bit rate                                 : 27.3 kb/s
/ Z, z, V1 Z4 a' MFrame rate                               : 0.418 FPS
% q3 d+ b4 R& o6 ~Count of elements                        : 3708# v" n9 W( @; ?9 _+ r8 b
Stream size                              : 28.9 MiB (0%)4 J" L% ~' j1 Q% v: M$ G
Language                                 : French! y! O0 q* B* }0 y, U. C
Default                                  : No' w/ [3 O' S% ]$ P& x4 V5 ~4 [
Forced                                   : No
/ E; Z: R8 p( r" e+ \8 `Original source medium                   : Blu-ray
2 r/ l: j. B) ~* v6 [2 w( \Text #3
7 R! F9 y/ N6 A$ T/ t2 h% }ID                                       : 7
* N2 E+ ^+ s. W" s! r9 D5 ]ID in the original source medium         : 4611 (0x1203)6 y5 S* B4 _- D
Format                                   : PGS0 _2 i4 K( T& t' M0 t( d! \
Muxing mode                              : zlib
4 N& J. O0 T, `4 B, e; zCodec ID                                 : S_HDMV/PGS" Y% v0 |$ F0 Y2 \+ g
Codec ID/Info                            : Picture based subtitle format used on BDs/HD-DVDs
' w1 F* L+ A( z  GDuration                                 : 2 h 28 min
- {1 b6 Y/ t) s) ?% k2 qBit rate                                 : 30.4 kb/s; T7 P! H9 o, ]7 l6 X  j. w1 q% h
Frame rate                               : 0.430 FPS$ o8 T# Y# G% p
Count of elements                        : 3821
2 ^5 H+ H2 j7 O* HStream size                              : 32.2 MiB (0%)
: v3 P6 l; l0 HLanguage                                 : Spanish7 {8 Q( S3 W, @9 \1 B" _
Default                                  : No' [0 p# M8 s' {+ T+ g# [5 n
Forced                                   : No" L) g6 j- v! z; [3 i
Original source medium                   : Blu-ray
1 }! b) J% d" SText #4
4 C5 c/ ]% n( `( iID                                       : 8
1 }$ r+ x8 X; _" l4 z+ tID in the original source medium         : 4611 (0x1203)4 ]6 V! j1 p4 i  O, `, q- g5 |4 A
Format                                   : PGS
- M, p) Z% J) Z# q3 SMuxing mode                              : zlib# H1 e# g; Y$ \( @
Codec ID                                 : S_HDMV/PGS
0 v1 r3 p* M! ECodec ID/Info                            : Picture based subtitle format used on BDs/HD-DVDs
. x6 |9 R0 T5 t, ?5 @& X4 e8 _1 A6 NDuration                                 : 2 h 17 min
4 ?7 X6 d, ]5 h# ?4 i8 UBit rate                                 : 204 b/s' r& A: ]- \; K; s) J5 ?
Frame rate                               : 0.002 FPS+ U9 q1 J8 c5 G% M* G  A# N
Count of elements                        : 18: c$ [4 t' M6 U/ d' ~
Stream size                              : 207 KiB (0%)
. i+ L6 Z$ H/ Y  e. A& j7 ~Language                                 : Spanish
2 l3 ?$ t& M/ `* p9 K5 rDefault                                  : No
, M( N# e) k8 v8 Y* ^: \" `6 ]Forced                                   : No  X- c& C4 z, b6 l4 O/ @2 i
Original source medium                   : Blu-ray
1 w% O1 n1 a( H# YText #5  ?* W* H& c4 ]& E2 T
ID                                       : 97 ?2 f+ t0 K- t2 b7 Y
Format                                   : PGS
  T6 J' p# Y3 [# A$ \5 C( jMuxing mode                              : zlib
' \1 X% i& f" ?  ZCodec ID                                 : S_HDMV/PGS  y/ \4 N+ ]% O- g" N/ h
Codec ID/Info                            : Picture based subtitle format used on BDs/HD-DVDs
6 R9 ?' Q* k0 a1 i" FDuration                                 : 2 h 28 min
' F$ c2 y& Z/ U/ ?Bit rate                                 : 28.5 kb/s
( y, T5 U7 D) x, V) n) RFrame rate                               : 0.430 FPS
+ V" O  p  I' s" jCount of elements                        : 3821
9 U  E0 r/ {- a8 O" r) cStream size                              : 30.2 MiB (0%)2 v$ b4 P1 d( ^4 r( i
Title                                    : Chinese (Cantonese)" h8 _8 t5 ~' \3 _6 d
Language                                 : Chinese- H& X& \% t8 N8 Q& b9 |
Default                                  : No/ `3 u1 m3 Z3 w5 C' h
Forced                                   : No( A' @9 }4 ?$ P$ x
Text #6
  ]7 v0 X* ^% ~5 R- l: O8 D- xID                                       : 10/ f$ h8 R$ l! w: c
Format                                   : PGS
' r& ]& L; L( V) q  HMuxing mode                              : zlib, I& E' [( c0 H% {$ G# v: A6 V& N
Codec ID                                 : S_HDMV/PGS5 d* a- H) z9 h& e1 U* R. w
Codec ID/Info                            : Picture based subtitle format used on BDs/HD-DVDs
& c3 w4 T/ M0 ?4 G8 EDuration                                 : 2 h 28 min& o# N0 g5 |1 c; x1 Y
Bit rate                                 : 29.5 kb/s
( ?3 s% \% r3 |Frame rate                               : 0.444 FPS5 x7 Y! {6 z; X
Count of elements                        : 3945
% V5 e4 T8 Q7 |5 B5 A- Z+ u& pStream size                              : 31.2 MiB (0%)* U* o# ]; J& s( e. ~- r
Title                                    : Chinese (Simplified)
4 g6 r5 l. B, M. |. O( WLanguage                                 : Chinese
- h$ E1 Z/ y' c7 N/ ~9 NDefault                                  : No
5 y9 \* o5 n0 u9 b$ oForced                                   : No
5 ~) M) t) [- G, P1 {# x* GText #7$ r, ~0 n: z' e( U
ID                                       : 11- ?: v/ l2 p* S& H- Q* [
Format                                   : PGS
* ^, p  E$ R: U/ s/ gMuxing mode                              : zlib
, |2 y% G+ y7 a3 D+ N- TCodec ID                                 : S_HDMV/PGS: F" e, q# O+ J& }  n1 Z9 U( C3 {# d
Codec ID/Info                            : Picture based subtitle format used on BDs/HD-DVDs
; j1 M6 ]! \* P' K1 e! ADuration                                 : 2 h 28 min
& x) K) r9 I  K! z7 [% {$ n. ]+ f7 tBit rate                                 : 26.1 kb/s
3 @' \$ p2 ?' JFrame rate                               : 0.445 FPS
$ S# A: c) v! y/ l, tCount of elements                        : 3955$ t' I( [0 [- \1 Z: C1 U
Stream size                              : 27.6 MiB (0%)) t; X* e2 i: P; i- [3 r* Z
Title                                    : Chinese (Traditional)- I/ R" p; y% w  T- N
Language                                 : Chinese
! o+ A. x. A* s# [! |  yDefault                                  : No: y4 C# M+ z6 t
Forced                                   : No/ R% f" T9 m- S
Text #8. Z* Q& A- R( s* D! b" c! Z5 h
ID                                       : 12
; a, C, N; R& [( r/ y- sFormat                                   : PGS
( D" ]; s, [7 e0 J. ]) HMuxing mode                              : zlib1 O6 w1 z& _/ b8 u7 l
Codec ID                                 : S_HDMV/PGS: X! n% |8 P0 E
Codec ID/Info                            : Picture based subtitle format used on BDs/HD-DVDs! g4 l$ }; e4 U- X
Duration                                 : 2 h 28 min
8 d  C! A; Y" ~0 n+ H( k4 BBit rate                                 : 26.4 kb/s
# K5 G4 ]0 P4 FFrame rate                               : 0.451 FPS
7 z. K5 @+ p, ?! i$ BCount of elements                        : 4009% E. l2 j: A, B- L# a
Stream size                              : 27.9 MiB (0%); M/ H5 U" j& F
Title                                    : Korean
# A& B# O/ G, nLanguage                                 : Korean
  Q/ I) q; `# o) RDefault                                  : No
0 K5 J* N* q- U/ K3 |Forced                                   : No
2 F% y  C. z3 }0 ]$ g/ {Text #9
+ ~% ?  a3 T" {6 R+ {ID                                       : 13
9 s) u# Y1 y, B+ |3 {2 G$ \4 y6 ZFormat                                   : PGS
2 C: i7 \0 Y5 Q$ N/ `Muxing mode                              : zlib
' ~. R+ U7 ]( Y  [! O3 cCodec ID                                 : S_HDMV/PGS
" V: P0 j) A. K6 e- uCodec ID/Info                            : Picture based subtitle format used on BDs/HD-DVDs
! j0 k4 b% e, d; h1 a$ WDuration                                 : 2 h 28 min
6 Y+ T7 {% r& f+ |$ @0 M( }Bit rate                                 : 32.8 kb/s% }' ]1 Y4 b3 F- d7 Z: t, S
Frame rate                               : 0.429 FPS
" m$ Q* A, T3 L2 ^! w% {Count of elements                        : 3809' M/ n1 x% _$ o" y/ c
Stream size                              : 34.7 MiB (0%)
  @0 U9 \) ]8 u7 q- R. A5 JTitle                                    : Portuguese (Brazilian)
( C6 ^" q/ t/ ?Language                                 : Portuguese& T6 ^. B& k! @4 |
Default                                  : No
6 {, H( P% r  i& K1 ]. t3 AForced                                   : No
) d: o$ B  w) a$ |+ s% M* a8 YText #10
# ^2 J5 X2 l7 R% ^( V0 e3 lID                                       : 14* \8 @; L. n: i" J, W" b8 p
Format                                   : PGS/ Z: P! o; `& Z# R4 O% f8 x/ `. F" p
Muxing mode                              : zlib
7 I7 \8 C7 b' ]" i6 `: x& TCodec ID                                 : S_HDMV/PGS
% @+ i% U/ v' ?4 W2 fCodec ID/Info                            : Picture based subtitle format used on BDs/HD-DVDs9 u' o  Q  O, o9 Z1 V& P% U( o. M( }
Duration                                 : 2 h 28 min
0 `5 X) k0 n( {: K* bBit rate                                 : 30.4 kb/s
) \: u" t+ k7 n$ s2 `& p& [Frame rate                               : 0.430 FPS: [, j2 |! a: R3 J3 }
Count of elements                        : 3821# [7 W" t+ b8 \4 N
Stream size                              : 32.2 MiB (0%)' T& s2 U! ]( S. [2 ~7 e2 d) T# j
Title                                    : Spanish (Latin American)
, g4 {7 H& |; J& ?Language                                 : Spanish8 C& v% t% u" M  A0 l
Default                                  : No
. d% `, I' e2 X+ a7 QForced                                   : No8 Q5 r8 R+ ]( u( R
Text #11
) X. ~0 D( d. T8 H" d  N0 g. P* AID                                       : 15
6 f( p- M) W1 j9 L( MFormat                                   : PGS, [0 j* u# m9 j( |  U3 ^
Muxing mode                              : zlib# u: h) \6 o; y  Y; b( W" `  _
Codec ID                                 : S_HDMV/PGS8 F3 c0 H; j" |5 y
Codec ID/Info                            : Picture based subtitle format used on BDs/HD-DVDs/ d; G: \$ s" b3 X9 R0 i! y
Duration                                 : 2 h 28 min( _* _7 i1 t( g) y
Bit rate                                 : 32.5 kb/s
4 |% P7 |- x% kFrame rate                               : 0.439 FPS
( y. T+ {' `4 a1 e* u& `Count of elements                        : 3896! p8 G6 H1 m( b' ]4 n5 [
Stream size                              : 34.4 MiB (0%)
' o* k: l2 `3 g. T* ?Language                                 : Thai
( ^* f# }9 S& p/ Q6 h. G( RDefault                                  : No2 J& j( k5 S8 x( f& `( K
Forced                                   : No$ k! P/ }& Q- q* H7 I
Menu
5 b+ N0 W. G5 o$ }: {$ v" v8 c00:00:00.000                             : en:Chapter 010 e) l$ F/ @7 {) ?# ?
00:05:01.634                             : en:Chapter 02
: F. Z3 \* ~# H- z( Y# {" b00:11:57.049                             : en:Chapter 03% y9 n" b) d* }  w: H& K3 q. K
00:18:37.366                             : en:Chapter 04( J6 ?( Y8 {* D5 p2 F
00:26:58.908                             : en:Chapter 059 R2 G* }  [  R4 N5 w/ u! V# }; v- O  c
00:37:19.695                             : en:Chapter 06
* E: _4 p& t# j( o1 Q9 c4 G00:48:00.460                             : en:Chapter 07
+ c7 l- G) I8 T, {5 l+ u1 l00:59:49.168                             : en:Chapter 08
  T+ H$ q0 I2 V9 S( n$ \* d01:04:05.091                             : en:Chapter 09& v8 Q8 \9 f* e% u6 ^
01:09:49.768                             : en:Chapter 10
. y8 C# Q) _& p  I/ u# w01:18:27.911                             : en:Chapter 119 X( _/ L4 o4 T8 @
01:28:58.082                             : en:Chapter 12; [0 l' c+ J% y" A$ d9 X. r1 e
01:46:36.848                             : en:Chapter 134 H! x% M( N3 T/ Z
02:05:37.780                             : en:Chapter 145 m1 B( j, T& X3 _6 }7 V
02:13:02.057                             : en:Chapter 15" Y6 Z; }( ^# Q/ W  [
02:18:54.326                             : en:Chapter 16

% V* P1 g( z6 w# r/ |* ]7 K( X5 K蓝光高清网提示您 点击下方附件名称 即可开始下载
( x+ f# i: b9 v& o5 @' r- y/ P3 M% v' \; ], f5 B; _* ^
多版本下载时请注意区分1 x1 `, w, f5 G0 i8 O* ^. }

- S+ ^6 Y8 C1 H2 P% G0 `% u蜘蛛侠:英雄无归 Spider-Man.No.Way.Home.2021.1080p.3D.BluRay.x264.TrueHD.7.1.Atmos-3D原盘电影下载
4 I, h2 G  a0 n  I4 R4 e6 P  F8 R( A. }; c2 t9 ?6 I/ }
蜘蛛侠:英雄无归 Spider-Man.No.Way.Home.2021.1080p.3D.BluRay.Half-OU.x264.DTS-HD.MA.7.1-FGT 21.19GB
$ g7 r! ~7 _. K3 K* f  f, h: L2 u

Spider-Man.No.Way.Home.2021.1080p.3D.BluRay.Half-OU.x264.DTS-HD.MA.7.1-FGT.torrent ( 27.17 KB )

; n- _* m3 E: o/ Y+ p/ C' E2 k

) k' P- f  q# |6 H蜘蛛侠:英雄无归 Spider-Man.No.Way.Home.2021.1080p.3D.BluRay.Half-OU.x264.TrueHD.7.1.Atmos-FGT 22.13GB
7 G( V/ `; g$ P& f3 ]3 T2 P

Spider-Man.No.Way.Home.2021.1080p.3D.BluRay.Half-OU.x264.TrueHD.7.1.Atmos-FGT.torrent ( 28.35 KB )

0 h) L9 b0 K# X( c2 i! |  Z
! A. O  w( c  b  {. z
蜘蛛侠:英雄无归 Spider-Man.No.Way.Home.2021.1080p.3D.BluRay.Half-SBS.x264.DTS-HD.MA.7.1-FGT 19.85GB
  N; W" j7 t1 a

Spider-Man.No.Way.Home.2021.1080p.3D.BluRay.Half-SBS.x264.DTS-HD.MA.7.1-FGT.torrent ( 25.49 KB )

/ T' ]$ e' R8 f3 \

- p& D* c% h& ]) u1 \2 l3 Z! B蜘蛛侠:英雄无归 Spider-Man.No.Way.Home.2021.1080p.3D.BluRay.Half-SBS.x264.TrueHD.7.1.Atmos-FGT 20.79GB
& Y# w7 l; E3 J! F8 o

Spider-Man.No.Way.Home.2021.1080p.3D.BluRay.Half-SBS.x264.TrueHD.7.1.Atmos-FGT.torrent ( 26.67 KB )


' c$ G2 n5 T' e- d4 C
加入蓝光高清网VIP会员  无限制下载本站所有资源---点这里

资源下载、资源播放、字幕使用、无法下载等常见问题---点这里
回复

使用道具 举报

全部回复1 显示全部楼层
隐形人手机认证 发表于 2022-10-26 15:29:00 | 显示全部楼层
好好好好好好好好
回复 支持 反对

使用道具 举报

发表回复

您需要登录后才可以回帖 登录 | 立即注册

本版积分规则

开通会员 帮助中心 返回顶部 返回列表