本站已运行

蓝光高清网

搜索
开启左侧

[专题系列纪录片] The Colorful Ballad of Louis Armstrong/路易斯·阿姆斯特朗的黑人形象与蓝调音乐4k.Louis.Armstrongs.Black.and.Blues.2022.2160p.ATVP.WEB-DL.x265.10bit.SDR.DDP5.1.Atmos-4k纪录片下载

蓝鸟 发表于 2022-10-29 10:58:22 | 显示全部楼层 |阅读模式

The Colorful Ballad of Louis Armstrong/路易斯·阿姆斯特朗的黑人形象与蓝调音乐4k.Louis.Armstrongs.Bla ...

The Colorful Ballad of Louis Armstrong/路易斯·阿姆斯特朗的黑人形象与蓝调音乐4k.Louis.Armstrongs.Bla ...




简       介


       《路易斯·阿姆斯特朗的黑色与蓝调》通过档案镜头和从未听过的家庭录音和个人对话,展现了这位改变世界的音乐家的亲密而深刻的一面。这部权威纪录片由萨查·詹金斯执导,纪念阿姆斯特朗作为爵士乐开国元勋、第一批国际知名和受人喜爱的明星之一以及美国文化大使所留下的遗产。这部电影展示了阿姆斯特朗自己的一生如何跨越了从内战到民权运动的转变,以及他如何在那个动荡的时代成为一个避雷针人物。

影片参数

Black & Blues: The Colorful Ballad of Louis Armstrong/路易斯·阿姆斯特朗的黑人形象与蓝调音乐4k.Louis.Armstrongs.Black.and.Blues.2022.2160p.ATVP.WEB-DL.x265.10bit.SDR.DDP5.1.Atmos-4k纪录片信息
Video
ID : 1
Format : HEVC
Format/Info : High Efficiency Video Coding
Format profile : Main 10@L5@High
Codec ID : V_MPEGH/ISO/HEVC
Duration : 1 h 46 min
Bit rate : 20.2 Mb/s
Width : 3 840 pixels
Height : 2 160 pixels
Display aspect ratio : 16:9
Frame rate mode : Constant
Frame rate : 23.976 FPS
Color space : YUV
Chroma subsampling : 4:2:0
Bit depth : 10 bits
Bits/(Pixel*Frame) : 0.101
Stream size : 15.0 GiB (96%)
Language : English
Default : Yes
Forced : No
Color range : Limited
Color primaries : BT.709
Transfer characteristics : BT.709
Matrix coefficients : BT.709


Text #36
ID : 38
Format : UTF-8
Codec ID : S_TEXT/UTF8
Codec ID/Info : UTF-8 Plain Text
Duration : 1 h 45 min
Bit rate : 312 b/s
Frame rate : 0.298 FPS
Count of elements : 1891
Stream size : 242 KiB (0%)
Title : தமிழ்
Language : Tamil
Default : No
Forced : No


Text #37
ID : 39
Format : UTF-8
Codec ID : S_TEXT/UTF8
Codec ID/Info : UTF-8 Plain Text
Duration : 1 h 45 min
Bit rate : 241 b/s
Frame rate : 0.298 FPS
Count of elements : 1892
Stream size : 187 KiB (0%)
Title : తెలుగు
Language : Telugu
Default : No
Forced : No


Text #38
ID : 40
Format : UTF-8
Codec ID : S_TEXT/UTF8
Codec ID/Info : UTF-8 Plain Text
Duration : 1 h 45 min
Bit rate : 216 b/s
Frame rate : 0.298 FPS
Count of elements : 1893
Stream size : 167 KiB (0%)
Title : ไทย
Language : Thai
Default : No
Forced : No


Text #39
ID : 41
Format : UTF-8
Codec ID : S_TEXT/UTF8
Codec ID/Info : UTF-8 Plain Text
Duration : 1 h 45 min
Bit rate : 94 b/s
Frame rate : 0.277 FPS
Count of elements : 1760
Stream size : 73.2 KiB (0%)
Title : Türkçe
Language : Turkish
Default : No
Forced : No


Text #40
ID : 42
Format : UTF-8
Codec ID : S_TEXT/UTF8
Codec ID/Info : UTF-8 Plain Text
Duration : 1 h 45 min
Bit rate : 152 b/s
Frame rate : 0.297 FPS
Count of elements : 1888
Stream size : 118 KiB (0%)
Title : українська
Language : Ukrainian
Default : No
Forced : No


Text #41
ID : 43
Format : UTF-8
Codec ID : S_TEXT/UTF8
Codec ID/Info : UTF-8 Plain Text
Duration : 1 h 45 min
Bit rate : 111 b/s
Frame rate : 0.289 FPS
Count of elements : 1833
Stream size : 86.2 KiB (0%)
Title : Tiếng Việt
Language : Vietnamese
Default : No
Forced : No


Text #42
ID : 44
Format : UTF-8
Codec ID : S_TEXT/UTF8
Codec ID/Info : UTF-8 Plain Text
Duration : 1 h 45 min
Bit rate : 86 b/s
Frame rate : 0.298 FPS
Count of elements : 1894
Stream size : 66.8 KiB (0%)
Title : 廣東話
Language : Chinese
Default : No
Forced : No


Text #43
ID : 45
Format : UTF-8
Codec ID : S_TEXT/UTF8
Codec ID/Info : UTF-8 Plain Text
Duration : 1 h 45 min
Bit rate : 90 b/s
Frame rate : 0.298 FPS
Count of elements : 1893
Stream size : 70.4 KiB (0%)
Title : 中文(简体)
Language : Chinese
Default : No
Forced : No


Text #44
ID : 46
Format : UTF-8
Codec ID : S_TEXT/UTF8
Codec ID/Info : UTF-8 Plain Text
Duration : 1 h 45 min
Bit rate : 93 b/s
Frame rate : 0.298 FPS
Count of elements : 1894
Stream size : 72.1 KiB (0%)
Title : 中文(繁體)
Language : Chinese
Default : No
Forced : No

蓝光高清网提示您 点击下方附件名称 即可开始下载

多版本下载时请注意区分

Black & Blues: The Colorful Ballad of Louis Armstrong/路易斯·阿姆斯特朗的黑人形象与蓝调音乐4k.Louis.Armstrongs.Black.and.Blues.2022.2160p.ATVP.WEB-DL.x265.10bit.SDR.DDP5.1.Atmos-4k纪录片下载

路易斯·阿姆斯特朗的黑人形象与蓝调音乐4k.Louis.Armstrongs.Black.and.Blues.2022.2160p.ATVP.WEB-DL.x265.10bit.SDR.DDP5.1.Atmos【15.57 GB】


路易斯·阿姆斯特朗的黑人形象与蓝调音乐4k.Louis.Armstrongs.Black.and.Blues.2022.2160p.ATVP.WEB-DL.x265.10bit.HDR.DDP5.1.Atmos【18.36 GB】


路易斯·阿姆斯特朗的黑人形象与蓝调音乐4k.Louis.Armstrongs.Black.and.Blues.2022.2160p.ATVP.WEB-DL.DDP5.1.Atmos.DV.MP4.x265-简繁中字【杜比视界 18.39 GB】


路易斯·阿姆斯特朗的黑人形象与蓝调音乐4k.Louis.Armstrongs.Black.and.Blues.2022.2160p.ATVP.WEB-DL.DDP5.1.Atmos.DV.MKV.x265-简繁中字【杜比视界 18.39 GB】


来源: The Colorful Ballad of Louis Armstrong/路易斯·阿姆斯特朗的黑人形象与蓝调音乐4k.Louis.Armstrongs.Black.and.Blues.2022.2160p.ATVP.WEB-DL.x265.10bit.SDR.DDP5.1.Atmos-4k纪录片下载
加入蓝光高清网VIP会员  无限制下载本站所有资源---点这里

资源下载、资源播放、字幕使用、无法下载等常见问题---点这里
回复

使用道具 举报

全部回复0 显示全部楼层

发表回复

您需要登录后才可以回帖 登录 | 立即注册

本版积分规则

开通会员 帮助中心 返回顶部 返回列表