本站已运行

蓝光高清网

搜索
开启左侧

雷神4:爱与雷霆 Thor.Love.and.Thunder.2022.1080p.3D.BluRay.x264.TrueHD.7.1.Atmos-3D原盘下载

蓝鸟 发表于 2022-11-2 10:37:16 | 显示全部楼层 |阅读模式
雷神4:爱与雷霆 豆瓣评分: 5.4分
片长: 119分钟 ( 2022年上映)
类型:喜剧 动作 爱情 科幻 奇幻 冒险 
导演:塔伊加·维迪提
主演:克里斯·海姆斯沃斯 / 娜塔莉·波特曼 / 克里斯蒂安·贝尔 / 泰莎·汤普森 / 塔伊加·维迪提
3 D 格式:half-ou sbs 

封装音轨:DTS-HD.MA 7.1 Dolby TrueHD 7.1 Dolby Atmos 
简       介. n" a* }; C% a" K1 Q/ Y, u

- F- \, S. x# T+ S, m  影片故事发在在《复仇者联盟4:终局之战》事件之后,雷神索尔(克里斯·海姆斯沃斯 饰)踏上了一段他从未经历过的旅程:找回自我。但索尔的退休计划却被企图消灭众神的屠神者格尔(克里斯蒂安·贝尔 饰)打断,他只好与女武神瓦尔基里(泰莎·汤普森 饰)和寇格(塔伊加·维迪提 饰)再次联手,其间更发现自己八年未见的前女友简·福斯特(娜塔莉·波特曼 饰)获得了雷神之力、挥舞着多年前在自己面前毁灭的雷神之锤,令索尔惊讶不已。他们一起踏上了星际冒险,以揭开格尔的复仇之谜,并在为时已晚之前阻止他。( T! c8 Z2 L* p; |6 U& }+ I
4 x$ Z0 P$ S; _8 e) f
影片参数
Video
$ u: q7 q' S0 J, mID                                       : 16 b6 N& K9 Z5 _) w
Format                                   : AVC
! `6 [$ r! \2 z- {Format/Info                              : Advanced Video Codec
- C) T* e4 i8 YFormat profile                           : [email protected]0 ~* `6 s: k1 H6 L% g; {
Format settings                          : CABAC / 2 Ref Frames8 W/ s, F: T. c( |6 N* ]4 C3 N
Format settings, CABAC                   : Yes5 g. V& A! [+ R$ [1 r
Format settings, Reference frames        : 2 frames2 E, ?! s; s8 Q" t, }) a7 m
Format settings, GOP                     : M=3, N=24: Z6 y' \9 w7 ?1 M. X9 H; D. R
Codec ID                                 : V_MPEG4/ISO/AVC" a6 h: K0 S# j/ G; ]) b4 K
Duration                                 : 1 h 58 min
0 r) N7 U* Z. k4 Q# x. |3 jBit rate                                 : 14.8 Mb/s8 t/ _2 R7 S! o/ c
Nominal bit rate                         : 16.0 Mb/s
4 R  U5 W- D% Q4 \- IWidth                                    : 1 920 pixels0 z2 @8 f: V& t
Height                                   : 1 080 pixels2 Z# x) c  x2 e2 h% s2 y
Display aspect ratio                     : 16:9
; @; F" d1 j0 Q3 VFrame rate mode                          : Constant
4 h7 I) M$ ~, Q) S: v4 \; i- bFrame rate                               : 23.976 (24000/1001/189150) FPS" s8 \5 t0 T0 v5 N
Color space                              : YUV
# p" L$ u% r$ f& Z& V. \Chroma subsampling                       : 4:2:0% C& i) ?0 s' [2 S. g7 P( ]
Bit depth                                : 8 bits" [# J  ]$ G* }) m- @/ r
Scan type                                : Progressive) Y* p4 X& ^' W6 c, ~* D" G
Bits/(Pixel*Frame)                       : 0.298( e/ w9 U4 Q8 ]. G: _
Stream size                              : 12.3 GiB (66%)% d( `1 ?, Z$ r3 z; I
Writing library                          : x264 core 148
' J6 W/ t* M" _. G$ w% h5 xEncoding settings                        : cabac=1 / ref=1 / deblock=1:-1:-1 / analyse=0x3:0 / me=hex / subme=5 / psy=0 / mixed_ref=0 / me_range=16 / chroma_me=1 / trellis=0 / 8x8dct=1 / cqm=0 / deadzone=21,11 / fast_pskip=0 / chroma_qp_offset=0 / threads=48 / lookahead_threads=8 / sliced_threads=0 / nr=0 / decimate=1 / interlaced=0 / bluray_compat=0 / constrained_intra=0 / bframes=2 / b_pyramid=0 / b_adapt=1 / b_bias=0 / direct=1 / weightb=0 / open_gop=0 / weightp=0 / keyint=24 / keyint_min=13 / scenecut=40 / intra_refresh=0 / rc_lookahead=24 / rc=cbr / mbtree=0 / bitrate=16000 / ratetol=1.0 / qcomp=0.60 / qpmin=0 / qpmax=69 / qpstep=4 / vbv_maxrate=16000 / vbv_bufsize=16000 / nal_hrd=none / filler=0 / ip_ratio=1.40 / pb_ratio=1.30 / aq=1:1.00. U# H, _; b0 V5 q! f1 `
Default                                  : Yes: x2 `% W0 Y8 L
Forced                                   : No
* @. S! @+ Z: @* D5 wColor range                              : Limited( ?+ S5 h" A0 o: `
Color primaries                          : BT.7095 ]" Y/ z" k5 @
Transfer characteristics                 : BT.709
+ O& A% J5 G- hMatrix coefficients                      : BT.709) p7 v) s7 z3 h! m
Audio #1
1 C. ~0 k+ ^. u- p: H' e4 ~ID                                       : 2
# z, \9 @- X: q; GFormat                                   : MLP FBA 16-ch
. c/ T( h# l/ ^$ D* K5 l- z) tFormat/Info                              : Meridian Lossless Packing FBA with 16-channel presentation
6 w0 @6 A# X5 k( ?) n( xCommercial name                          : Dolby TrueHD with Dolby Atmos
- w  s; d' H# m5 Z7 c5 |Codec ID                                 : A_TRUEHD: U* H! _( c% r/ A3 }
Duration                                 : 1 h 58 min
  |* \( S% n# u9 s' D7 dBit rate mode                            : Variable8 M5 l( v  z# w3 P4 v* g' a
Bit rate                                 : 4 691 kb/s
: i8 f0 X  I' V' B0 S3 RMaximum bit rate                         : 8 409 kb/s8 E) I- Q" z! b& `0 P. g8 s2 X/ q
Channel(s)                               : 8 channels4 X* ~7 V# ]3 Z' \& `1 T
Channel layout                           : L R C LFE Ls Rs Lb Rb9 i7 l0 M# D+ W- x, f3 o
Sampling rate                            : 48.0 kHz
: h8 Z! U/ w5 J3 |Frame rate                               : 1 200.000 FPS (40 SPF)
& O' G+ g0 g3 d9 f: R& z" gCompression mode                         : Lossless
, n  T/ D, s  UStream size                              : 3.89 GiB (21%)  l) V1 p. M  ?6 x
Title                                    : TrueHD 7.1 Atmos; e& h# F* V8 g8 r2 B: K3 p4 L* D
Language                                 : English
$ d! |. K; ^0 i& U$ u: U* H6 LDefault                                  : Yes9 T) ^1 c7 {; U4 n; Q* g, T' @3 g
Forced                                   : No
1 T4 P8 c/ D; P+ CNumber of dynamic objects                : 13
( ~$ \2 X+ d. }- qBed channel count                        : 1 channel
* j3 Z! \* J% b$ N1 M! e6 n* ?/ JBed channel configuration                : LFE
' k: z1 Z( @9 _$ C$ n! RAudio #20 m$ u. p2 a' n- e7 g: q6 x
ID                                       : 34 s$ R, H( }! g# w
Format                                   : AC-3
& b+ N% q/ w; G4 n8 }& f) L" K- Z" xFormat/Info                              : Audio Coding 3
5 E( Q8 U4 }$ ~4 t- w9 [Commercial name                          : Dolby Digital. y0 |; S: P, E# c  M$ y# U
Codec ID                                 : A_AC3& N+ U: h8 m& N* v4 T
Duration                                 : 1 h 58 min, k0 ~6 n2 D1 j4 B
Bit rate mode                            : Constant8 w* P( g0 A7 \! D- v
Bit rate                                 : 640 kb/s
. y6 `8 a, R1 \2 ^+ L3 g- JChannel(s)                               : 6 channels
! U( c8 }; W3 }) `/ a# ]) `Channel layout                           : L R C LFE Ls Rs
" w6 X) N5 _3 l) |8 ^( r. ASampling rate                            : 48.0 kHz' X6 L& Y) C3 F4 D8 t
Frame rate                               : 31.250 FPS (1536 SPF)
7 L( `9 e) [+ @" w" fCompression mode                         : Lossy) T( v# ^0 N  f: Z
Stream size                              : 544 MiB (3%)
1 X" d( Y' q: n8 s! s  aTitle                                    : DD 5.11 F, I6 K4 X; _  a& B& H. F
Language                                 : English8 I. f" l5 k& q8 Q! R, O
Service kind                             : Complete Main, z3 P. k) l% w1 P
Default                                  : No* ?+ @4 c1 |/ |
Forced                                   : No7 c1 m+ ^4 y. B7 z" s# f! v
Audio #37 E0 Q# S% i$ @% {- i
ID                                       : 4
7 N2 N3 I- P, x, R/ cFormat                                   : AC-3
" m: d( }; v4 k& _; A* XFormat/Info                              : Audio Coding 3% M# P7 B5 ]+ s6 z7 [; O( E: N  m
Commercial name                          : Dolby Digital
* M7 w3 X/ ~+ f& I8 uCodec ID                                 : A_AC3
; F) M, F$ k& q$ ^( N5 q- c2 aDuration                                 : 1 h 58 min
* c( ]% `1 V6 m/ r: `- U; Z1 [Bit rate mode                            : Constant
* s2 g) h9 q; p: |* UBit rate                                 : 192 kb/s
( S% t; {4 r" r! }( YChannel(s)                               : 2 channels
2 y4 y+ M2 X7 F$ C% m- V6 m6 nChannel layout                           : L R
- j1 H8 [) V5 y; CSampling rate                            : 48.0 kHz
8 N2 [1 n, w$ R+ Z7 b! xFrame rate                               : 31.250 FPS (1536 SPF)& I1 e# ~  k! g7 }! S7 I
Compression mode                         : Lossy
5 P( m! @( M( @+ Z6 c6 WStream size                              : 163 MiB (1%)  E- N7 [; S' d* C4 h
Title                                    : Commentary by writer/director Taika Waititi5 H2 g1 e2 z3 _6 ?
Language                                 : English
; C0 f/ k; ~% g) o$ d  E# L& DService kind                             : Complete Main
, ^7 U$ }! I7 b+ r1 V2 \Default                                  : Yes
* c! W+ f  q! S- c, _, c* nForced                                   : No/ f: ]9 H7 U. U1 F, ?' s6 r
Audio #4; T$ w9 t8 n: I/ K4 ^
ID                                       : 5' k6 F3 ^( t* m' f& O" Z
Format                                   : DTS XBR% R% x2 \4 h; k
Format/Info                              : Digital Theater Systems9 l* z. C5 f0 H  o$ \
Commercial name                          : DTS-HD High Resolution Audio
1 i$ t+ p8 B$ d( PCodec ID                                 : A_DTS
4 |9 t9 c( _. O! x. A/ @1 @' bDuration                                 : 1 h 58 min
# a4 Q* P3 s# e" L9 @  [Bit rate mode                            : Constant6 T2 m7 ]8 r" {9 h6 l2 c! i
Bit rate                                 : 2 046 kb/s, }( h8 H% Q$ F' Q
Channel(s)                               : 8 channels
* T( F8 P) `; d1 E$ K' n. UChannel layout                           : C L R LFE Lb Rb Lss Rss6 O  d3 k4 Y0 e+ J
Sampling rate                            : 48.0 kHz$ p9 z) E3 |4 l) _% {: z) I4 X
Frame rate                               : 93.750 FPS (512 SPF)
, K  A" K% ]7 D# K! a! ], t3 gBit depth                                : 24 bits7 S1 _) L' S; `" c( f" q
Compression mode                         : Lossy
6 f' [2 F: _6 F; y" X4 fStream size                              : 1.70 GiB (9%)) K( |9 W7 I! N% N" }' |
Language                                 : Japanese
/ v7 g( c! b/ v2 L! n- aDefault                                  : No( Z/ j7 _5 i: E/ ]8 k7 C
Forced                                   : No
/ X' i: c8 q+ w9 NText #1
) V4 P+ t, A- W7 IID                                       : 6
2 b* n- J& a. K) j  [  q! C2 m  uFormat                                   : PGS& a$ _! N2 B, L
Muxing mode                              : zlib8 y' L. B( B, L  j" I  M
Codec ID                                 : S_HDMV/PGS  j; p  Y& R4 V' A& W: O
Codec ID/Info                            : Picture based subtitle format used on BDs/HD-DVDs
$ y7 r- |, w8 o! R6 [3 P6 [) A0 ?Duration                                 : 1 h 57 min8 _! I4 m4 G1 E* o$ k
Bit rate                                 : 45.1 kb/s
- D# m3 r9 i2 {1 p! gFrame rate                               : 0.459 FPS- @& i% f: l$ i( D
Count of elements                        : 3244
# B0 p% {, ?9 J3 y. V; tStream size                              : 38.0 MiB (0%)) G3 _! O" \/ w" G
Language                                 : English
* c+ B+ _3 v* p+ K9 L& v7 GDefault                                  : Yes
  ~. r% _8 u6 z- A  WForced                                   : No) Z; @& G" @+ N2 g3 }0 X
Text #24 a; h! f: v) T  P! p& M
ID                                       : 7
% P5 R0 a. r3 x& d& e( c' G! K/ UFormat                                   : UTF-8
- R8 t1 Y2 L5 iCodec ID                                 : S_TEXT/UTF8
  S: _& N" S$ @. B! ZCodec ID/Info                            : UTF-8 Plain Text
1 x  G: R3 u! @1 x, j4 z* E5 tDuration                                 : 1 h 57 min( s2 W- _5 \) m, L" K
Bit rate                                 : 56 b/s
, z3 v, q+ A5 u6 O% q9 E; [$ a& J) RFrame rate                               : 0.252 FPS6 Q( f! Z. J, s1 z: ?/ _
Count of elements                        : 17820 i9 D! ^  d: L' ?% g, A  z
Stream size                              : 48.8 KiB (0%); F, j% Z: G' x' B3 l0 |: [4 ~
Language                                 : English! v8 R6 s# O/ r' V4 j
Default                                  : No1 R$ P! v5 n8 S: o! N1 C
Forced                                   : No. c. B& I" F( R9 d. X, ^$ H
Text #39 K& |: D% v3 W
ID                                       : 8
" G" a# Y7 b5 e8 G7 s- H) f4 TFormat                                   : UTF-8
; P( ?7 W' J' ~0 G' jCodec ID                                 : S_TEXT/UTF8
' l+ |  j0 W( W7 V  g8 z  JCodec ID/Info                            : UTF-8 Plain Text
' q' X  r5 g: V& L- _3 f( k7 }! NDuration                                 : 1 h 58 min* W# }4 U8 C. W# A
Bit rate                                 : 69 b/s
; D4 f6 T1 ]' K5 v% dFrame rate                               : 0.319 FPS( V9 ]1 N& H# j% b
Count of elements                        : 2262
; `4 V# u6 Y9 _0 UStream size                              : 60.2 KiB (0%)
! A  n; u! k3 s1 p2 CTitle                                    : SDH
2 Z/ }# Q0 v7 v( _8 G7 lLanguage                                 : English
" L0 [3 i6 U! m6 MDefault                                  : No
" [$ M; k& B8 qForced                                   : No
- z$ W8 L* h3 g, |Text #4
9 v1 y' T$ v& k/ l/ S$ u  WID                                       : 98 f* ~" a3 x( v# b! d. u' }! L
Format                                   : UTF-8" L6 L6 r9 @7 W# r. T9 a) A7 @
Codec ID                                 : S_TEXT/UTF8
# n2 p$ R6 Q3 Y; jCodec ID/Info                            : UTF-8 Plain Text
; H7 b* s7 F2 x' X* WDuration                                 : 1 h 57 min
# `6 J7 D% F/ L5 Y: ^6 E& H3 S' q# m6 CBit rate                                 : 48 b/s
' X, Q2 O7 L3 ]/ h8 Q- g3 wFrame rate                               : 0.227 FPS. u" r4 z, n% K# D" [1 S( P
Count of elements                        : 1607+ L" r3 F" o8 e0 X
Stream size                              : 41.8 KiB (0%)& ]( }" I$ V2 [' x1 w
Language                                 : Czech
( w$ r5 _( t1 S* f: M1 |Default                                  : No
) R5 g( {% s- e( Z. T+ ~7 Q8 j: rForced                                   : No
- ~0 ?, F- R  Q0 q  l- `' BText #5
0 m7 B  F& K0 e% W( O: q& J4 `& lID                                       : 10
$ G, }4 g: N6 [8 c0 X' \Format                                   : UTF-87 R2 ]# A8 G  T2 g3 m! N2 E9 P
Codec ID                                 : S_TEXT/UTF8
+ G" j7 O, W2 }) nCodec ID/Info                            : UTF-8 Plain Text
& [9 w$ [, i7 ]" s% B+ N7 R; wDuration                                 : 1 h 57 min
( W" n6 B9 y& LBit rate                                 : 44 b/s
. J& y+ c) X4 \! c# |! b+ F: YFrame rate                               : 0.140 FPS$ L, t. `/ K" t
Count of elements                        : 990
1 a! F2 X1 F; c, `9 x! fStream size                              : 38.4 KiB (0%)* D$ |5 s$ S4 p' s
Language                                 : Danish* V$ j' k3 r4 w* H# _5 l
Default                                  : No
* G( g3 B2 @; w  MForced                                   : No
1 L9 I$ H* B2 t; v, H5 o2 ^; cText #6
7 J/ {; b: b. @9 A$ UID                                       : 11
7 s, h, k  V& u9 X1 j3 X9 \Format                                   : UTF-8
2 ?" c  @2 N  y; ECodec ID                                 : S_TEXT/UTF87 u, m5 }. z% c; s( `! Y; s: ^
Codec ID/Info                            : UTF-8 Plain Text' v) E/ l4 O0 J: |  y$ s* ~% c& B
Duration                                 : 1 h 57 min2 j+ G5 l/ S5 {8 I
Bit rate                                 : 50 b/s6 W8 M; e" t9 y* ?8 r8 [* X
Frame rate                               : 0.196 FPS9 i1 f+ f$ Z9 w3 L
Count of elements                        : 1388# |7 t& A4 Q- \' `
Stream size                              : 43.4 KiB (0%)
" t' u) Y: X- {! LLanguage                                 : Dutch' D2 P; o9 h' q2 [
Default                                  : No
% W/ K' Q6 G/ Q0 g% M8 i1 G; KForced                                   : No/ E, m, o8 u9 Z4 Q* O% x
Text #72 c% b2 J* F, i1 U6 Q  e- I
ID                                       : 12$ F3 ?3 z' x5 U4 w# A) t" p
Format                                   : UTF-88 q9 w7 Q% l; i4 y
Codec ID                                 : S_TEXT/UTF8
3 w8 v1 g4 p4 T# f* ]: RCodec ID/Info                            : UTF-8 Plain Text  h7 I- z8 N3 k1 D! X" q
Duration                                 : 1 h 57 min" m0 ~9 S" w0 D
Bit rate                                 : 55 b/s, V2 q9 ]2 U3 H. f
Frame rate                               : 0.227 FPS4 v: Y) }9 r/ j- U
Count of elements                        : 1606& O3 w0 A) y0 z" v$ ?' k' ^
Stream size                              : 47.6 KiB (0%)9 s- s" m3 d- s5 L
Language                                 : Finnish
. W# p1 c% y6 _# ~$ n  w$ ^* hDefault                                  : No2 j# e2 B( ]8 Z: h- P& z2 P) S
Forced                                   : No$ O, ]& Q3 x" ~4 Y8 F
Text #84 ], Z1 g' R# O4 ^9 f$ L* C
ID                                       : 13# d5 N% t( _2 `, u0 n
Format                                   : UTF-80 e: g. S; ~9 _) L9 C- |  f# z9 k
Codec ID                                 : S_TEXT/UTF8
7 |0 ~  d" }! T- d/ mCodec ID/Info                            : UTF-8 Plain Text+ f5 _& b8 C  u  \! S
Duration                                 : 1 h 57 min1 m$ s/ [! ]7 M$ G4 D
Bit rate                                 : 45 b/s
- p6 f8 g+ w. mFrame rate                               : 0.213 FPS
* W3 ]. D! z4 T9 H1 \" XCount of elements                        : 1504- @/ Z1 A$ M4 l* v3 k6 w' ]
Stream size                              : 39.0 KiB (0%)
+ ?( ~# [' O8 V( F7 e) u' d. iLanguage                                 : French
3 f8 y0 \: R8 d4 ZDefault                                  : No
( C3 y8 J5 V, J  X* e2 T% aForced                                   : No/ d0 o8 b: m' U1 R; c& P
Text #9
* s7 k, ~, P- L- v( G; NID                                       : 14
' J6 D8 e" o: y1 K+ a  e4 WFormat                                   : UTF-8! a% D* F( K$ m9 C4 p: a% V0 J
Codec ID                                 : S_TEXT/UTF84 z, S/ H7 D& H+ F
Codec ID/Info                            : UTF-8 Plain Text
: E7 P: ]2 l+ m6 \1 oDuration                                 : 1 h 57 min& E8 q, n& _+ c, y
Bit rate                                 : 46 b/s* ~/ R* g$ r3 P" o. e; j* A
Frame rate                               : 0.208 FPS
( q7 K! h7 d, K% KCount of elements                        : 1472
  ]0 e- _$ a6 [' t" mStream size                              : 40.5 KiB (0%)
( P9 J- }3 ?$ W5 k- i8 |8 oLanguage                                 : German
* D& e2 }  H- K( [9 l3 J9 TDefault                                  : No
0 d7 x8 q3 B3 B) p; l! L" v' e: E3 g! mForced                                   : No5 w8 J; B! U& [8 L7 `& U2 J
Text #10
, _2 S7 h7 G( m! O  p, {3 ?. UID                                       : 15+ S, t! T" R  X+ J
Format                                   : UTF-8
: F; [- {0 k3 K+ `/ A7 CCodec ID                                 : S_TEXT/UTF8+ L; B5 O1 k- t( N* ^' g( E1 M; P. S! N
Codec ID/Info                            : UTF-8 Plain Text
6 m' a" D: i: b3 D: P8 WDuration                                 : 1 h 57 min/ ?8 w4 H0 q1 O4 k
Bit rate                                 : 88 b/s1 U/ l; j1 z/ R0 C) H! f, B
Frame rate                               : 0.227 FPS! w7 U: G( }# n' N6 ^3 M& n" t
Count of elements                        : 1602
: T9 a4 |% h4 _  \' @3 p, yStream size                              : 76.7 KiB (0%)
6 N4 l1 K/ V: G, e) x! W3 ]* }Language                                 : Greek: x9 O: e( n, x* V# `' h# F7 x$ I+ [' A
Default                                  : No4 m  }# g3 @8 F: A! O& Q  P1 d0 f
Forced                                   : No
) f, m! I+ t4 V2 DText #110 K4 v" L. H" p7 e- h$ }! S! s
ID                                       : 16  z) L2 U6 ^  ]) A- j: u
Format                                   : UTF-8
) q  s. q. i0 e2 q0 ]$ tCodec ID                                 : S_TEXT/UTF8
3 ?% ~. }; U8 xCodec ID/Info                            : UTF-8 Plain Text! x9 z6 x; V/ \+ O, s
Duration                                 : 1 h 57 min
8 I3 [" ^+ D' X% i4 P4 k0 JBit rate                                 : 46 b/s3 v: S9 B( O; T8 q
Frame rate                               : 0.228 FPS( y* \  g$ [0 o* @3 b5 \& A- @
Count of elements                        : 1611  P% B* i: k9 z8 F0 v
Stream size                              : 40.5 KiB (0%)
4 a1 t% a( B7 E) J7 I6 N% ZLanguage                                 : Hungarian; Z. Y+ l, |2 j4 p9 M1 T3 P
Default                                  : No
3 V" j0 B  Q- B. Y+ mForced                                   : No
# R9 z3 v9 G9 f- ], v9 FText #12
) ]& `7 |; K! z7 U  i" }ID                                       : 17! M8 }0 G) M. ~- P% K) p# M# h& x
Format                                   : UTF-88 j5 J9 u5 M# E8 h- c
Codec ID                                 : S_TEXT/UTF8' d- s3 R- z* p8 j. a% Y
Codec ID/Info                            : UTF-8 Plain Text
+ L9 g" e- h$ q5 M$ FDuration                                 : 1 h 57 min& e  V1 V: f. A- P# j5 o; c
Bit rate                                 : 51 b/s
4 K' w; z  B+ i3 D2 TFrame rate                               : 0.226 FPS/ L. p2 ?( V  v3 }
Count of elements                        : 1601
3 L0 M8 b7 p2 U4 P) VStream size                              : 44.7 KiB (0%)
2 ]7 H( q. {/ k: [( CLanguage                                 : Icelandic
# g/ {  Q7 u$ N# |Default                                  : No: C' O. u7 h0 c" B: k7 t+ ]2 R
Forced                                   : No
* m+ c1 n( B2 r1 g4 Q1 bText #13
" P. k9 R9 U' o- }. }2 XID                                       : 188 Q+ }2 G* P0 Q# u2 e$ v
Format                                   : UTF-8
1 Z, w2 y! ^# W2 s& l, k1 F/ H- o2 @Codec ID                                 : S_TEXT/UTF8
- C5 e8 n, r) q- y3 B$ ~- BCodec ID/Info                            : UTF-8 Plain Text) J; D3 c9 |; z/ M2 b! S% D
Duration                                 : 1 h 57 min" J. |8 k) D2 g0 H
Bit rate                                 : 56 b/s
& O& D! s7 m# H5 pFrame rate                               : 0.227 FPS; s2 O8 ]! a0 H2 I9 [
Count of elements                        : 1607* b1 I, ?) l/ ^: y# W1 l, ]
Stream size                              : 48.8 KiB (0%): \5 O; ~9 w; V, l6 f$ W
Language                                 : Italian- l' L$ D1 T, @; b1 f$ M2 c
Default                                  : No6 B4 K. O- G9 A/ w
Forced                                   : No) b# K% s. r( k: W
Text #14
5 V0 h* x0 o  A% B% pID                                       : 19
4 Y0 N3 b& A3 n6 IFormat                                   : UTF-8
, i& ^; _( x/ A: x  }1 OCodec ID                                 : S_TEXT/UTF8
/ S* g$ ]- b4 c! I, v7 @Codec ID/Info                            : UTF-8 Plain Text
* q* W1 y' s' f1 b5 [& \Duration                                 : 1 h 57 min/ M  q( X: _  N8 ~
Bit rate                                 : 47 b/s
5 J8 K: ?# G; a; d$ @Frame rate                               : 0.228 FPS
$ W5 {* j6 T0 v" ?6 t- w# SCount of elements                        : 1612
+ P) R9 Z: m! ?7 R. Z- T) o% lStream size                              : 41.3 KiB (0%)
' h" o6 c- X0 P- I" DLanguage                                 : Norwegian0 F! t, I4 O5 M( c
Default                                  : No
$ Q. I1 D! ?; V/ T9 {5 l& jForced                                   : No
- E* F# H5 ]0 dText #15
' X8 g! c0 ~0 X2 W4 ~: gID                                       : 201 `% C1 ?: I3 u# y9 \
Format                                   : UTF-8! n8 {! D) z6 {+ n- g; J
Codec ID                                 : S_TEXT/UTF8" }" {6 E, W5 o9 m
Codec ID/Info                            : UTF-8 Plain Text8 b. B) L/ A9 a* E
Duration                                 : 1 h 57 min
. ]. c& ]9 c) e$ D/ K3 _$ dBit rate                                 : 42 b/s2 V& A; \/ R0 Z) [4 a
Frame rate                               : 0.228 FPS) K# J9 f8 ^+ a  r9 X; C2 S
Count of elements                        : 1610
- X( D5 A1 k. \4 h3 i( `Stream size                              : 37.0 KiB (0%)8 u0 S9 v& X) H
Language                                 : Polish% C* r5 E. P+ M9 |) `. [; ]
Default                                  : No2 k' ]  e3 d* X# e( e
Forced                                   : No5 h0 }( Q: a* X% C9 J! T9 X9 i
Text #16
1 ]+ {$ ^& I8 p" F1 ]& n. |% sID                                       : 21
/ L& ~, ~6 H7 o8 x2 a+ W) s3 xFormat                                   : UTF-8; n" J3 N1 h# y4 w8 c6 [
Codec ID                                 : S_TEXT/UTF84 p7 }; f" l- t
Codec ID/Info                            : UTF-8 Plain Text
4 b7 z' f# l( @& C' n. v# DDuration                                 : 1 h 58 min; n: e* l0 T* l- \2 f1 S& f
Bit rate                                 : 52 b/s
5 {& R3 Y( o& @& W: E) lFrame rate                               : 0.221 FPS
( Z! w8 }* n2 {6 H- w9 Y* d! g6 I. RCount of elements                        : 15732 _6 \! T% X- u9 @, w: Z
Stream size                              : 45.8 KiB (0%)1 [7 e2 E. K/ ~( [5 Y
Language                                 : Portuguese
3 ?3 e# g& s9 _9 iDefault                                  : No0 {/ l) C" \, y/ Y8 M4 y
Forced                                   : No- s+ ]. p, N% r' ^8 D& m( X5 q; |
Text #177 [8 o7 v+ F, n/ S7 ^4 G8 y
ID                                       : 22
- }( D# m4 z6 R" \: j* cFormat                                   : UTF-81 e5 ~8 J, J+ t. H5 A% b7 d# q* {
Codec ID                                 : S_TEXT/UTF83 \3 u2 ?+ H: \
Codec ID/Info                            : UTF-8 Plain Text4 [' U$ R, C* \" U. D
Duration                                 : 1 h 57 min
  {4 A) E6 n+ {9 c9 {( c. ~- ~Bit rate                                 : 55 b/s" M) k1 D5 G( E+ Q
Frame rate                               : 0.211 FPS1 n& w2 Z4 c( i1 \
Count of elements                        : 1492* t" G. B& S. [
Stream size                              : 47.6 KiB (0%)
: G( r6 G( _& c6 z# I7 ~Language                                 : Romanian& B7 F% _3 b7 S: O
Default                                  : No
2 [! @) b* I, I3 q  YForced                                   : No. e7 c3 q/ u: D) ~% o
Text #18
  g8 ?  j# T. `* EID                                       : 23- d1 w+ }7 t. b" L4 X( h
Format                                   : UTF-8! M" u3 J. I4 ?  K
Codec ID                                 : S_TEXT/UTF8: K9 a2 w* |8 Y  I( u7 d
Codec ID/Info                            : UTF-8 Plain Text
4 b! B+ L1 e2 M; E% v, x+ \5 B6 @Duration                                 : 1 h 57 min
, z$ o  {  m0 g; t5 w0 w- Z" }7 Y2 rBit rate                                 : 46 b/s$ _1 v3 s0 c7 p. i1 w  p- x9 H
Frame rate                               : 0.228 FPS5 I/ H  k2 A' W( G9 ^5 H
Count of elements                        : 1612
+ m! @2 O" K/ T/ A0 y% P/ B  Y3 }" ZStream size                              : 39.8 KiB (0%)
% u8 D" B, R# k) }) bLanguage                                 : Slovak
- E" W9 v1 ]1 K6 [6 a2 A3 o5 jDefault                                  : No2 m; |, N6 `5 C1 Y. r$ f1 B: q
Forced                                   : No% T6 _3 u* f! N# h" h* I* J" z
Text #19
4 N- u) ~& F8 I- ]: ^ID                                       : 24
* v+ s- L# L) |% t* Z, dFormat                                   : UTF-8
; g3 Q3 x, f4 I; L1 u" @Codec ID                                 : S_TEXT/UTF8
/ ]- }( e5 ?  ICodec ID/Info                            : UTF-8 Plain Text
5 N8 m; U. X' C7 fDuration                                 : 1 h 57 min0 v/ A' Q) E7 }0 i6 j3 W6 m
Bit rate                                 : 49 b/s
/ a$ n% u+ D) LFrame rate                               : 0.227 FPS1 T& U0 D  y# r* N5 ^
Count of elements                        : 1603# O4 f' V* N" A* p3 ?3 |
Stream size                              : 42.7 KiB (0%)
# C# g) |' B2 K# P. Y" NLanguage                                 : Spanish
( \! z9 c& e* s' X% y! bDefault                                  : No
! N9 S  J. {$ K$ g( N7 O0 mForced                                   : No# `2 e+ V$ Q/ y  T: w* e/ D
Text #20. z( x% ?4 p5 c
ID                                       : 259 [8 a8 p5 o$ L. _  N6 |4 e; E
Format                                   : UTF-8+ L8 `" s0 o- D; q5 M
Codec ID                                 : S_TEXT/UTF8, T- N  u+ Q# u8 O4 ^  L- g
Codec ID/Info                            : UTF-8 Plain Text
# b. g8 C5 q7 E: E1 M' NDuration                                 : 1 h 57 min5 U- N9 {. ^1 f# @1 s
Bit rate                                 : 47 b/s# o) b9 Z( [; ~  o
Frame rate                               : 0.165 FPS) {; v7 n! ]1 L5 }
Count of elements                        : 1166
7 a, [7 t( N4 K: M: |/ H; W3 [& uStream size                              : 41.1 KiB (0%)" y% W0 _2 I% P# x/ S+ W# P/ D, a
Language                                 : Swedish3 l7 ?( C+ k8 y0 K
Default                                  : No
/ K- ^9 j- h) Z0 G( H4 AForced                                   : No) a3 ]6 y  G( o. l( D
Text #217 k+ ~# m8 `+ N5 S  e. z3 O4 o! i3 G
ID                                       : 26
8 f( o+ [8 |8 S# @3 h+ A9 M! eFormat                                   : UTF-8) L3 z. K- ^' e
Codec ID                                 : S_TEXT/UTF8) {; d. e( V% u: h  F
Codec ID/Info                            : UTF-8 Plain Text
% c6 g* C" B* `9 u. rDuration                                 : 1 h 57 min2 N) X3 b1 W5 i  M6 @
Bit rate                                 : 53 b/s
# _. E$ p7 \+ DFrame rate                               : 0.228 FPS+ g# i- P- u2 t+ d8 t7 a" j
Count of elements                        : 1609# w. W% a, G# N
Stream size                              : 46.1 KiB (0%)0 k+ z6 F( g$ r# Z4 g$ i9 d
Language                                 : Turkish3 ~4 t4 ]5 o/ A' r
Default                                  : No
" v/ y9 G3 o/ ]Forced                                   : No
  X) C& E) Z1 g, PText #22% ~( y5 o7 r3 _  K3 C
ID                                       : 278 W: R  Y/ ?" j' Q1 u
Format                                   : PGS$ P* X' b$ c/ c! {, {  [
Muxing mode                              : zlib
1 `1 y6 k- t& v6 XCodec ID                                 : S_HDMV/PGS6 H" D3 o: R0 e7 Y( j/ Y. y
Codec ID/Info                            : Picture based subtitle format used on BDs/HD-DVDs6 }- {' a/ k4 w  Q; {' |
Duration                                 : 1 h 58 min; ~+ O! Y$ P/ z6 o
Bit rate                                 : 52.5 kb/s* y( N( H" {9 Q" J
Frame rate                               : 0.641 FPS0 f! q' s4 j; z1 c! r, W  ~/ u
Count of elements                        : 4548
* ?$ Q7 @* l0 M' T' F, CStream size                              : 44.4 MiB (0%)  u; ~+ u. s/ l6 W4 j3 [- P
Title                                    : SDH
4 G- v* B, X8 X4 G9 j$ ILanguage                                 : English
, Q/ m" F6 a0 \0 t+ H7 M/ X3 [Default                                  : No4 a& ]. ~$ r* I( z# }
Forced                                   : No
8 y3 B8 E# d, ]3 h; F$ R$ yText #23
) b% u7 m; `7 _% Q: MID                                       : 28
% r% }8 S1 \/ _+ i" H6 d  |Format                                   : PGS
4 E7 L/ s, w' ]6 J  D, O; XMuxing mode                              : zlib. n. Z" w4 {; r! H; ?
Codec ID                                 : S_HDMV/PGS, O0 I9 [1 H$ {
Codec ID/Info                            : Picture based subtitle format used on BDs/HD-DVDs
; u" {& y$ ^5 [; `7 I9 O* y. H! nDuration                                 : 1 h 57 min" X) d$ a# [4 R" z
Bit rate                                 : 27.2 kb/s
8 L. Y4 {1 _7 r6 B, JFrame rate                               : 0.280 FPS& u: r6 i, M9 M3 O2 O( U2 y8 I
Count of elements                        : 1980
* V! m( [! S  K$ X5 U: |) y/ wStream size                              : 22.9 MiB (0%)9 q' @6 F" M5 i- u
Language                                 : Danish# W* E" j+ Z+ u! S  a9 P
Default                                  : No
( f5 D+ N2 \5 nForced                                   : No6 V+ |) [5 j4 h& T+ ?/ |/ W
Text #24
7 z# _9 l$ n# f) Z0 A5 a4 x* GID                                       : 293 z; `) A% Z3 G
Format                                   : PGS
3 m! i% N! @  _; X/ q; X5 wMuxing mode                              : zlib
" g$ G/ P# R+ A' e& \7 @3 VCodec ID                                 : S_HDMV/PGS
+ k4 k. C* j- x, M; oCodec ID/Info                            : Picture based subtitle format used on BDs/HD-DVDs! r1 m7 x) ?5 l0 Z; a" @0 u* d
Duration                                 : 1 h 57 min  L- P' U0 Y) ?1 @
Bit rate                                 : 31.6 kb/s
9 L2 n1 d1 R0 n7 L2 B) m% DFrame rate                               : 0.392 FPS  u1 r" `3 m8 |' t! U
Count of elements                        : 2772
: @6 c, j  s# s+ R0 ~Stream size                              : 26.6 MiB (0%)
1 O4 @! A# `* h6 c2 p: g4 Z# M& P6 L8 dLanguage                                 : Dutch
  Z% c9 Y, W. L5 G" IDefault                                  : No- {  m. g+ B; P! o
Forced                                   : No6 Y* j- o* w( X5 Z: _
Text #25
$ c6 p2 w) T4 o+ PID                                       : 30
4 E2 r, v7 A4 P: @, x* J4 fFormat                                   : PGS# d* ~' F1 v4 m; ^$ F* t" E  C
Muxing mode                              : zlib
5 W0 v" o  ^2 O; z: }9 iCodec ID                                 : S_HDMV/PGS/ e2 m3 t& A, V( t1 U) w* u( I: g
Codec ID/Info                            : Picture based subtitle format used on BDs/HD-DVDs9 G2 G% ^" y' x5 x& s- d
Duration                                 : 1 h 57 min
. `* z* U  x, z8 o6 a' CBit rate                                 : 35.0 kb/s" S$ p, a& w9 h" j. _6 G0 s& P
Frame rate                               : 0.453 FPS
% v3 p: {3 v: ~! [/ P7 j# qCount of elements                        : 3206
/ [8 r8 N  g  H/ ~5 a8 ~/ CStream size                              : 29.5 MiB (0%)# H7 w/ ?- u2 e. m2 g3 E1 w
Language                                 : Finnish4 I7 m' V4 [7 T  \5 f( x" g& x
Default                                  : No
8 G8 e4 b8 C- t+ U, I) X7 wForced                                   : No! n6 g4 G; b0 g, y0 |% c
Text #26
7 v, z/ g3 ]( ~* ^ID                                       : 31
9 {: l4 {1 y2 Q$ S+ BFormat                                   : PGS6 S6 O& P- a4 g6 q4 s' i3 o
Muxing mode                              : zlib6 A3 S- c# q7 @% `$ v$ g2 L; u
Codec ID                                 : S_HDMV/PGS1 G$ F0 |. N1 A; s, T
Codec ID/Info                            : Picture based subtitle format used on BDs/HD-DVDs
) v* U% a1 ]. M- ?Duration                                 : 1 h 57 min; X  @5 }" e  o; Y9 e, c$ C* I
Bit rate                                 : 27.5 kb/s
& B3 y1 H- G9 E% V/ ~+ Z8 sFrame rate                               : 0.425 FPS6 K! j( s+ z1 |- ?- b
Count of elements                        : 3006
7 g" ?: e7 Y  c' ~' {% {Stream size                              : 23.2 MiB (0%)0 W$ f7 @3 v2 v& ^+ z
Title                                    : Parisian6 R% z  ?# ?2 {/ \# s& n1 o+ R
Language                                 : French; x1 J* A) {- [; E. B; b
Default                                  : No2 m& A% b. i! @. i( L
Forced                                   : No% Y  j2 j0 T7 L: s, N' ]
Text #27. g( A( e1 `$ m+ n! S. h  N9 {# p
ID                                       : 32
$ p# P5 m7 ?- w4 Z# J) U. J4 X+ mFormat                                   : PGS& {. }/ c$ f1 }: E7 |
Muxing mode                              : zlib% l, K5 b& E& M9 a+ B
Codec ID                                 : S_HDMV/PGS, `; }$ S4 e* c  {( Q; H1 X1 G- K
Codec ID/Info                            : Picture based subtitle format used on BDs/HD-DVDs7 K* ~" Y: B: M5 R  q
Duration                                 : 1 h 57 min6 O/ e& u6 |0 p) d) ]
Bit rate                                 : 38.7 kb/s% H! `' P5 Q& }/ B+ ?+ e0 M. C
Frame rate                               : 0.462 FPS
4 P$ ^* u( ~7 Z7 ~$ UCount of elements                        : 3270
1 ^5 V# W. Y) @7 t, }* B; f; G4 wStream size                              : 32.6 MiB (0%)
- M/ _0 q  D) w) D1 o: SLanguage                                 : French! z. @2 p0 o$ g* m+ b
Default                                  : No
- ]" m) _, ?& F( xForced                                   : No
, q( r- P1 c4 L9 D2 ]0 KText #28
1 w) A% l, L/ Q' cID                                       : 33
1 u4 J( T+ V, y4 j" |7 SFormat                                   : PGS; V$ j' a( g9 X& u
Muxing mode                              : zlib) K! b9 j# K2 Y2 O" U% A
Codec ID                                 : S_HDMV/PGS
  t7 c/ f) t1 g4 k7 iCodec ID/Info                            : Picture based subtitle format used on BDs/HD-DVDs
  F( C1 c* d  t# q. @! }Duration                                 : 1 h 57 min
8 }5 z/ q" L$ r+ z/ Z$ @9 f5 bBit rate                                 : 30.5 kb/s% M) c1 x9 V" B& B- [
Frame rate                               : 0.416 FPS
: q, S3 B0 Y7 T. ]Count of elements                        : 2940
4 e5 C% |  Q& z7 F& k: [# y: s: mStream size                              : 25.7 MiB (0%). v3 H. O2 [3 A. a4 W$ d
Language                                 : German- h" A6 Y+ f: u: I4 E
Default                                  : No9 B% I- ^' t2 R$ F; n+ w7 g/ ~
Forced                                   : No: c4 c4 f! ~! H
Text #29
* c  }6 B" l8 G) SID                                       : 34
& l9 |8 J+ q4 }9 A3 RFormat                                   : PGS
# I" X$ s( ^: E. Q% m$ Z4 KMuxing mode                              : zlib) R: b7 `3 D& h% ?
Codec ID                                 : S_HDMV/PGS
4 k4 L% F' o0 n( Z4 o# E6 G2 P7 P( _Codec ID/Info                            : Picture based subtitle format used on BDs/HD-DVDs0 B: p" Q' `7 y: ]# ?' ]: R
Duration                                 : 1 h 57 min" b! j) {' m- @+ A0 h* w, Y
Bit rate                                 : 23.9 kb/s
# w: z( W1 ]! S; x8 s+ o) m( \Frame rate                               : 0.439 FPS1 d# H6 r" w) @: Q6 i8 ~
Count of elements                        : 31063 ?- ~8 P, H5 C+ o8 }+ ~9 C
Stream size                              : 20.1 MiB (0%)! Z& q$ K2 u( D5 k" s- f5 B5 |
Language                                 : Japanese
6 U) h3 |8 N, }% BDefault                                  : No
: T$ N: G( x% zForced                                   : No$ c' [( F+ @/ ]3 |/ B
Text #30
7 T0 k: _% h& C  c+ o1 i' Q& IID                                       : 35
2 w4 u5 |, e& fFormat                                   : PGS, {: }; G; ]) w2 G9 u- ?7 ^
Muxing mode                              : zlib0 k4 a3 \* ?, T/ N2 e
Codec ID                                 : S_HDMV/PGS
4 |) E% i& m5 i5 _6 v  }9 A6 CCodec ID/Info                            : Picture based subtitle format used on BDs/HD-DVDs
3 l  F9 U1 N; T- m5 DDuration                                 : 1 h 57 min( x: n4 {* e( Z
Bit rate                                 : 29.6 kb/s, _0 w. s6 i2 k  p+ L
Frame rate                               : 0.455 FPS
6 o1 Z, @+ g- B9 HCount of elements                        : 3218
, m# I  q  @" H9 x- V' I  [, vStream size                              : 25.0 MiB (0%)
* N4 J% {5 `. L, x9 f. N4 lLanguage                                 : Norwegian9 ~5 F" H4 H, h) s9 m
Default                                  : No# B3 o( p0 b; ?/ p0 t- ~
Forced                                   : No
1 f; |4 [& _" b5 O2 bText #315 h' J3 S' h% x: z
ID                                       : 364 l# _) P% t& s+ |; k( P
Format                                   : PGS
0 _$ c1 ?/ p7 _! PMuxing mode                              : zlib
# i/ _) y( j" R3 H. Y  zCodec ID                                 : S_HDMV/PGS
5 d8 j! a" z) V/ F. Y% v) D: l. l2 FCodec ID/Info                            : Picture based subtitle format used on BDs/HD-DVDs5 X& W: U. E; G: _
Duration                                 : 1 h 57 min" o9 O; X0 D2 X) E5 n6 c0 h
Bit rate                                 : 38.1 kb/s
$ P+ F; O& l4 c' j1 \2 @; oFrame rate                               : 0.456 FPS
3 {3 n; o4 v% z- LCount of elements                        : 3224
: _  b7 Y6 G$ C$ X0 jStream size                              : 32.1 MiB (0%)
8 ?1 w. l5 O7 RTitle                                    : Latin American
2 N# @* v; P# x1 oLanguage                                 : Spanish
- u" u* T/ e+ C1 c; a2 ?8 K! JDefault                                  : No
5 d0 g+ b; l; g( Z& WForced                                   : No0 V' S0 y2 C+ K4 y( t
Text #324 ]; C/ g) q1 Y& e$ r  b
ID                                       : 37
/ T0 H6 F$ Y" U! WFormat                                   : PGS. H* N% ^3 Q; a, k8 C
Muxing mode                              : zlib8 ]" h: j/ d3 [5 Y+ x7 b
Codec ID                                 : S_HDMV/PGS
3 l9 i$ k- x4 j# b  u: E. }Codec ID/Info                            : Picture based subtitle format used on BDs/HD-DVDs$ k7 w0 `: Y& `/ `
Duration                                 : 1 h 57 min) y8 a5 P/ |" V3 D- E
Bit rate                                 : 28.7 kb/s' Z. r( Z7 ^. [- j6 U
Frame rate                               : 0.331 FPS
& D( E; w) ?' D0 eCount of elements                        : 2338
# ~3 }  F% ^* E( |Stream size                              : 24.2 MiB (0%)
2 j9 c, m. B0 D/ }Language                                 : Swedish* y6 |4 O: M- c& Y
Default                                  : No+ g; C" n) E5 |, ?0 N3 j* ~
Forced                                   : No
* {  Y: C* X/ \) KMenu4 ^& j, f0 j9 N! d- `! q# K
00:00:00.000                             : :Chapter 01
" O2 `: e: }( u$ R$ m00:06:45.155                             : :Chapter 02
/ M. h: ~) l) {9 U$ ]0 e$ y00:10:11.319                             : :Chapter 03/ U% A3 N. Z- S$ m
00:14:23.780                             : :Chapter 04! A" a: J! G* v4 U
00:18:13.426                             : :Chapter 05; H" M2 k; U* C1 h+ B
00:20:59.508                             : :Chapter 06
) s6 K! e0 E+ J) h0 v00:21:47.806                             : :Chapter 07. r0 n8 w" G( T( }
00:27:00.994                             : :Chapter 08' |( N+ o2 x: D" Q4 J2 q# K. z
00:28:16.194                             : :Chapter 09
6 q% G3 x# Y; t+ E* p00:29:52.249                             : :Chapter 10
/ d1 ~6 ~( l- b, v' d! f, b00:31:24.508                             : :Chapter 114 D3 k! u/ Q" _0 K7 u5 b
00:35:15.113                             : :Chapter 12
/ T% g' r4 q7 T5 p, m' y00:38:40.443                             : :Chapter 13
, i  Z: @5 Z" C00:45:37.443                             : :Chapter 14
' E& b( e9 [/ H! u6 U6 e00:53:04.223                             : :Chapter 15' p; N9 e! c2 J) f) h- |
01:06:19.392                             : :Chapter 16
' q; A; c. w; x) `+ J7 {  Z5 C1 `01:14:16.911                             : :Chapter 17
5 D* \7 `$ H1 a. C4 z3 [' x01:24:35.821                             : :Chapter 18/ W( ]& w( Z! `
01:28:31.181                             : :Chapter 19
  ]: D" r2 I' i, ^6 N01:30:19.998                             : :Chapter 203 I% Q; G1 I5 h# U
01:34:17.652                             : :Chapter 21
2 x! Y) Y. W8 `) K01:38:12.678                             : :Chapter 22
+ e. `. R9 u7 e+ S01:44:45.529                             : :Chapter 23
8 g: j' C$ R+ S/ m. L0 {$ p/ }01:48:17.616                             : :Chapter 24, y4 r4 {' b9 w6 I+ ?" t
01:50:03.430                             : :Chapter 25
* `0 I' i9 b, a/ m9 K. p; D01:51:14.710                             : :Chapter 26

2 x, ~& g% @" g0 p蓝光高清网提示您 点击下方附件名称 即可开始下载/ C3 A0 P8 ?* ^! k. X' Q" c
/ P* b* T0 A5 o1 ]
多版本下载时请注意区分
8 f" f) c; q6 F, _
$ Q* F, P$ Z% o4 {# B3 j+ m雷神4:爱与雷霆 Thor.Love.and.Thunder.2022.1080p.3D.BluRay.x264.TrueHD.7.1.Atmos-3D原盘下载% X; ?8 g! \: k: A

8 o. F, ^& I- M6 _
雷神4:爱与雷霆 Thor.Love.and.Thunder.2022.1080p.3D.BluRay.Half-OU.x264.TrueHD.7.1.Atmos-FGT 18.73GB
! Y. }1 U7 y( W8 Z: D6 m. t

Thor.Love.and.Thunder.2022.1080p.3D.BluRay.Half-OU.x264.TrueHD.7.1.Atmos-FGT.torrent ( 24.09 KB )


6 y, V  m0 C( \0 _, `: v: Q( P# n1 U& v) q5 M8 ^
雷神4:爱与雷霆 Thor.Love.and.Thunder.2022.1080p.3D.BluRay.Half-SBS.x264.DTS-HD.MA.7.1-FGT 17.23GB/ h4 ^/ w# T2 L* O4 x

Thor.Love.and.Thunder.2022.1080p.3D.BluRay.Half-SBS.x264.DTS-HD.MA.7.1-FGT.torrent ( 22.21 KB )


, o* x& x6 o( A0 J1 o6 A1 ]) I4 j$ D, z# ^7 W5 ~
雷神4:爱与雷霆 Thor.Love.and.Thunder.2022.1080p.3D.BluRay.Half-OU.x264.DTS-HD.MA.7.1-FGT 18.29GB& Q. M# T1 |0 g

Thor.Love.and.Thunder.2022.1080p.3D.BluRay.Half-OU.x264.DTS-HD.MA.7.1-FGT.torrent ( 23.53 KB )

4 h! p  L$ T* I) q2 J' I

% |1 `3 I7 ~3 V0 g& R: ]7 `# j雷神4:爱与雷霆 Thor.Love.and.Thunder.2022.1080p.3D.BluRay.Half-SBS.x264.TrueHD.7.1.Atmos-FGT 17.66GB$ D+ @6 X/ U9 p( z+ S

Thor.Love.and.Thunder.2022.1080p.3D.BluRay.Half-SBS.x264.TrueHD.7.1.Atmos-FGT.torrent ( 22.76 KB )

  d" U% d0 [& j

3 P1 v) Q$ H- e& ]3 z7 D% h* {3 g( m( {/ q# Y
加入蓝光高清网VIP会员  无限制下载本站所有资源---点这里

资源下载、资源播放、字幕使用、无法下载等常见问题---点这里
回复

使用道具 举报

全部回复2 显示全部楼层
ggang1 发表于 2022-11-2 12:30:52 | 显示全部楼层
感谢楼主分享。
回复 支持 反对

使用道具 举报

温补麻辣烫手机认证 发表于 2022-11-12 19:56:43 来自手机 | 显示全部楼层
我要怎么才能拿到高清币
回复 支持 反对

使用道具 举报

发表回复

您需要登录后才可以回帖 登录 | 立即注册

本版积分规则

开通会员 帮助中心 返回顶部 返回列表