本站已运行

蓝光高清网

搜索
开启左侧

[人文地理片] 地球风暴4k.Earthstorm.S01.2160p.NF.WEBRip.x265.10bit.HDR.DDP5.1.Atmos-4k纪录片下载

蓝鸟 发表于 2022-11-11 09:11:24 | 显示全部楼层 |阅读模式

地球风暴4k.Earthstorm.S01.2160p.NF.WEBRip.x265.10bit.HDR.DDP5.1.Atmos-4k纪录片下载

地球风暴4k.Earthstorm.S01.2160p.NF.WEBRip.x265.10bit.HDR.DDP5.1.Atmos-4k纪录片下载




影片参数

地球风暴4k.Earthstorm.S01.2160p.NF.WEBRip.x265.10bit.HDR.DDP5.1.Atmos-4k纪录片信息
Video
ID : 1
Format : HEVC
Format/Info : High Efficiency Video Coding
Format profile : Main 10@L5.1@High
HDR format : SMPTE ST 2086, HDR10 compatible
Codec ID : V_MPEGH/ISO/HEVC
Duration : 46 min 43 s
Bit rate : 20.3 Mb/s
Width : 3 840 pixels
Height : 1 920 pixels
Display aspect ratio : 2.000
Frame rate mode : Constant
Frame rate : 25.000 FPS
Color space : YUV
Chroma subsampling : 4:2:0
Bit depth : 10 bits
Bits/(Pixel*Frame) : 0.110
Stream size : 6.63 GiB (96%)
Writing library : x265 3.5+40-0b75c44c1:[Windows][MSVC 1933][64 bit] 10bit
Encoding settings : cpuid=1111039 / frame-threads=4 / numa-pools=0,28 / wpp / no-pmode / no-pme / no-psnr / no-ssim / log-level=2 / input-csp=1 / input-res=3840x1920 / interlace=0 / total-frames=0 / level-idc=51 / high-tier=1 / uhd-bd=0 / ref=5 / no-allow-non-conformance / repeat-headers / annexb / aud / no-eob / no-eos / hrd / info / hash=0 / no-temporal-layers / open-gop / min-keyint=25 / keyint=250 / gop-lookahead=0 / bframes=8 / b-adapt=2 / b-pyramid / bframe-bias=0 / rc-lookahead=40 / lookahead-slices=8 / scenecut=40 / no-hist-scenecut / radl=0 / no-splice / no-intra-refresh / ctu=64 / min-cu-size=8 / no-rect / no-amp / max-tu-size=32 / tu-inter-depth=3 / tu-intra-depth=4 / limit-tu=0 / rdoq-level=0 / dynamic-rd=0.00 / no-ssim-rd / signhide / no-tskip / nr-intra=0 / nr-inter=0 / no-constrained-intra / strong-intra-smoothing / max-merge=5 / limit-refs=0 / no-limit-modes / me=1 / subme=5 / merange=57 / temporal-mvp / no-frame-dup / no-hme / weightp / weightb / no-analyze-src-pics / deblock=-3:-3 / no-sao / no-sao-non-deblock / rd=4 / selective-sao=0 / early-skip / rskip / no-fast-intra / no-tskip-fast / no-cu-lossless / b-intra / no-splitrd-skip / rdpenalty=0 / psy-rd=2.00 / psy-rdoq=0.00 / no-rd-refine / no-lossless / cbqpoffs=0 / crqpoffs=0 / rc=crf / crf=17.0 / qcomp=0.60 / qpstep=4 / stats-write=0 / stats-read=0 / vbv-maxrate=160000 / vbv-bufsize=160000 / vbv-init=0.9 / min-vbv-fullness=50.0 / max-vbv-fullness=80.0 / crf-max=0.0 / crf-min=0.0 / ipratio=1.30 / pbratio=1.20 / aq-mode=3 / aq-strength=0.80 / no-cutree / zone-count=0 / no-strict-cbr / qg-size=32 / no-rc-grain / qpmax=69 / qpmin=0 / no-const-vbv / sar=1 / overscan=0 / videoformat=5 / range=0 / colorprim=9 / transfer=16 / colormatrix=9 / chromaloc=0 / display-window=0 / master-display=G(13250,34500)B(7500,3000)R(34000,16000)WP(15635,16450)L(10000000,1) / cll=1039,450 / min-luma=0 / max-luma=1023 / log2-max-poc-lsb=8 / vui-timing-info / vui-hrd-info / slices=1 / no-opt-qp-pps / no-opt-ref-list-length-pps / no-multi-pass-opt-rps / scenecut-bias=0.05 / hist-threshold=0.03 / no-opt-cu-delta-qp / no-aq-motion / hdr10 / hdr10-opt / no-dhdr10-opt / no-idr-recovery-sei / analysis-reuse-level=0 / analysis-save-reuse-level=0 / analysis-load-reuse-level=0 / scale-factor=0 / refine-intra=0 / refine-inter=0 / refine-mv=1 / refine-ctu-distortion=0 / no-limit-sao / ctu-info=0 / no-lowpass-dct / refine-analysis-type=0 / copy-pic=1 / max-ausize-factor=1.0 / no-dynamic-refine / no-single-sei / no-hevc-aq / no-svt / no-field / qp-adaptation-range=1.00 / scenecut-aware-qp=0conformance-window-offsets / right=0 / bottom=0 / decoder-max-rate=0 / no-vbv-live-multi-pass
Default : Yes
Forced : No
Color range : Limited
Color primaries : BT.2020
Transfer characteristics : PQ
Matrix coefficients : BT.2020 non-constant
Mastering display color primaries : Display P3
Mastering display luminance : min: 0.0001 cd/m2, max: 1000 cd/m2
Maximum Content Light Level : 1039 cd/m2
Maximum Frame-Average Light Level : 450 cd/m2


Text #18
ID : 20
Format : UTF-8
Codec ID : S_TEXT/UTF8
Codec ID/Info : UTF-8 Plain Text
Duration : 46 min 29 s
Bit rate : 76 b/s
Frame rate : 0.230 FPS
Count of elements : 642
Stream size : 26.1 KiB (0%)
Title : Malay
Language : Malay
Default : No
Forced : No


Text #19
ID : 21
Format : UTF-8
Codec ID : S_TEXT/UTF8
Codec ID/Info : UTF-8 Plain Text
Duration : 46 min 29 s
Bit rate : 72 b/s
Frame rate : 0.226 FPS
Count of elements : 630
Stream size : 24.6 KiB (0%)
Title : Dutch
Language : Dutch
Default : No
Forced : No


Text #20
ID : 22
Format : UTF-8
Codec ID : S_TEXT/UTF8
Codec ID/Info : UTF-8 Plain Text
Duration : 46 min 29 s
Bit rate : 72 b/s
Frame rate : 0.225 FPS
Count of elements : 627
Stream size : 24.8 KiB (0%)
Title : Norwegian Bokmal
Language : Norwegian
Default : No
Forced : No


Text #21
ID : 23
Format : UTF-8
Codec ID : S_TEXT/UTF8
Codec ID/Info : UTF-8 Plain Text
Duration : 46 min 29 s
Bit rate : 70 b/s
Frame rate : 0.228 FPS
Count of elements : 636
Stream size : 24.1 KiB (0%)
Title : Polish
Language : Polish
Default : No
Forced : No


Text #22
ID : 24
Format : UTF-8
Codec ID : S_TEXT/UTF8
Codec ID/Info : UTF-8 Plain Text
Duration : 46 min 29 s
Bit rate : 74 b/s
Frame rate : 0.229 FPS
Count of elements : 640
Stream size : 25.2 KiB (0%)
Title : Portuguese (Brazilian)
Language : Portuguese
Default : No
Forced : No


Text #23
ID : 25
Format : UTF-8
Codec ID : S_TEXT/UTF8
Codec ID/Info : UTF-8 Plain Text
Duration : 46 min 29 s
Bit rate : 75 b/s
Frame rate : 0.226 FPS
Count of elements : 631
Stream size : 25.6 KiB (0%)
Title : Portuguese (Iberian)
Language : Portuguese
Default : No
Forced : No


Text #24
ID : 26
Format : UTF-8
Codec ID : S_TEXT/UTF8
Codec ID/Info : UTF-8 Plain Text
Duration : 46 min 29 s
Bit rate : 79 b/s
Frame rate : 0.229 FPS
Count of elements : 638
Stream size : 27.0 KiB (0%)
Title : Romanian
Language : Romanian
Default : No
Forced : No


Text #25
ID : 27
Format : UTF-8
Codec ID : S_TEXT/UTF8
Codec ID/Info : UTF-8 Plain Text
Duration : 46 min 29 s
Bit rate : 131 b/s
Frame rate : 0.232 FPS
Count of elements : 646
Stream size : 44.7 KiB (0%)
Title : Russian
Language : Russian
Default : No
Forced : No


Text #26
ID : 28
Format : UTF-8
Codec ID : S_TEXT/UTF8
Codec ID/Info : UTF-8 Plain Text
Duration : 46 min 29 s
Bit rate : 72 b/s
Frame rate : 0.228 FPS
Count of elements : 637
Stream size : 24.7 KiB (0%)
Title : Swedish
Language : Swedish
Default : No
Forced : No


Text #27
ID : 29
Format : UTF-8
Codec ID : S_TEXT/UTF8
Codec ID/Info : UTF-8 Plain Text
Duration : 46 min 29 s
Bit rate : 191 b/s
Frame rate : 0.232 FPS
Count of elements : 646
Stream size : 65.1 KiB (0%)
Title : Thai
Language : Thai
Default : No
Forced : No


Text #28
ID : 30
Format : UTF-8
Codec ID : S_TEXT/UTF8
Codec ID/Info : UTF-8 Plain Text
Duration : 46 min 29 s
Bit rate : 74 b/s
Frame rate : 0.229 FPS
Count of elements : 640
Stream size : 25.5 KiB (0%)
Title : Turkish
Language : Turkish
Default : No
Forced : No


Text #29
ID : 31
Format : UTF-8
Codec ID : S_TEXT/UTF8
Codec ID/Info : UTF-8 Plain Text
Duration : 46 min 29 s
Bit rate : 119 b/s
Frame rate : 0.232 FPS
Count of elements : 646
Stream size : 40.7 KiB (0%)
Title : Ukrainian
Language : Ukrainian
Default : No
Forced : No


Text #30
ID : 32
Format : UTF-8
Codec ID : S_TEXT/UTF8
Codec ID/Info : UTF-8 Plain Text
Duration : 46 min 29 s
Bit rate : 107 b/s
Frame rate : 0.230 FPS
Count of elements : 642
Stream size : 36.6 KiB (0%)
Title : Vietnamese
Language : Vietnamese
Default : No
Forced : No


Text #31
ID : 33
Format : UTF-8
Codec ID : S_TEXT/UTF8
Codec ID/Info : UTF-8 Plain Text
Duration : 46 min 29 s
Bit rate : 69 b/s
Frame rate : 0.232 FPS
Count of elements : 646
Stream size : 23.8 KiB (0%)
Title : Chinese (Simplified)
Language : Chinese
Default : No
Forced : No


Text #32
ID : 34
Format : UTF-8
Codec ID : S_TEXT/UTF8
Codec ID/Info : UTF-8 Plain Text
Duration : 46 min 29 s
Bit rate : 70 b/s
Frame rate : 0.232 FPS
Count of elements : 646
Stream size : 24.0 KiB (0%)
Title : Chinese (Traditional)
Language : Chinese
Default : No
Forced : No

蓝光高清网提示您 点击下方附件名称 即可开始下载


地球风暴4k.Earthstorm.S01.2160p.NF.WEBRip.x265.10bit.HDR.DDP5.1.Atmos-4k纪录片下载

地球风暴4k.Earthstorm.S01.2160p.NF.WEBRip.x265.10bit.HDR.DDP5.1.Atmos-简繁中字【HDR】【24.36 GB】



来源: 地球风暴4k.Earthstorm.S01.2160p.NF.WEBRip.x265.10bit.HDR.DDP5.1.Atmos-4k纪录片下载
加入蓝光高清网VIP会员  无限制下载本站所有资源---点这里

资源下载、资源播放、字幕使用、无法下载等常见问题---点这里
回复

使用道具 举报

全部回复1 显示全部楼层
gdlmxia 发表于 2022-11-11 11:31:49 | 显示全部楼层
地球風暴第I季4k
回复 支持 反对

使用道具 举报

发表回复

您需要登录后才可以回帖 登录 | 立即注册

本版积分规则

开通会员 帮助中心 返回顶部 返回列表