本站已运行

蓝光高清网

搜索
开启左侧

[动物世界] The.Trackers.Diary.Bears.Of.Katmai.S01.2160p.WEBRip.AAC2.0.x264-纪录片下载

1080pro 发表于 5 天前 | 显示全部楼层 |阅读模式

The.Trackers.Diary.Bears.Of.Katmai.S01.2160p.WEBRip.AAC2.0.x264-纪录片下载

The.Trackers.Diary.Bears.Of.Katmai.S01.2160p.WEBRip.AAC2.0.x264-纪录片下载




影片参数

The.Trackers.Diary.Bears.Of.Katmai.S01.2160p.WEBRip.AAC2.0.x264-纪录片信息
Video
ID : 1
Format : AVC
Format/Info : Advanced Video Codec
Format profile : High@L5.1
Format settings : CABAC / 4 Ref Frames
Format settings, CABAC : Yes
Format settings, Reference frames : 4 frames
Codec ID : V_MPEG4/ISO/AVC
Duration : 27 min 1 s
Bit rate : 15.6 Mb/s
Width : 3 840 pixels
Height : 2 160 pixels
Display aspect ratio : 16:9
Frame rate mode : Constant
Frame rate : 25.000 FPS
Color space : YUV
Chroma subsampling : 4:2:0
Bit depth : 8 bits
Scan type : Progressive
Bits/(Pixel*Frame) : 0.075
Stream size : 2.95 GiB (99%)
Default : Yes
Forced : No


Audio
ID : 2
Format : AAC LC
Format/Info : Advanced Audio Codec Low Complexity
Codec ID : A_AAC-2
Duration : 27 min 1 s
Bit rate : 157 kb/s
Channel(s) : 2 channels
Channel layout : L R
Sampling rate : 48.0 kHz
Frame rate : 46.875 FPS (1024 SPF)
Compression mode : Lossy
Stream size : 30.4 MiB (1%)
Language : English
Default : Yes
Forced : No


Text
ID : 3
Format : UTF-8
Codec ID : S_TEXT/UTF8
Codec ID/Info : UTF-8 Plain Text
Duration : 27 min 0 s
Bit rate : 88 b/s
Frame rate : 0.341 FPS
Count of elements : 553
Stream size : 17.4 KiB (0%)
Language : English
Default : No
Forced : No

蓝光高清网提示您 点击下方附件名称 即可开始下载

The.Trackers.Diary.Bears.Of.Katmai.S01.2160p.WEBRip.AAC2.0.x264-纪录片下载

The.Trackers.Diary.Bears.Of.Katmai.S01.2160p.WEBRip.AAC2.0.x264【15.26 GB】



来源: The.Trackers.Diary.Bears.Of.Katmai.S01.2160p.WEBRip.AAC2.0.x264-纪录片下载
回复

使用道具 举报

全部回复0 显示全部楼层

发表回复

您需要登录后才可以回帖 登录 | 立即注册

本版积分规则

开通会员 帮助中心 返回顶部 返回列表