本站已运行

蓝光高清网

搜索
开启左侧

纽约爱音鳄(港) / 鳄鱼歌王(台) / 鳄鱼莱尔/鳄鱼莱莱4k.Lyle.Lyle.Crocodile.2022.2160p.WEB-DL.x265.10bit.SDR.DDP5.1.Atmos-电影下载

蓝鸟 发表于 5 天前 | 显示全部楼层 |阅读模式
鳄鱼莱莱 豆瓣评分: 7.0分
上映时间:2022年
类型:喜剧 动画 奇幻 冒险 家庭 歌舞 
地区:美国 
导演:乔什·戈登 / 威尔·斯佩克
主演:肖恩·蒙德兹 / 哈维尔·巴登 / 吴恬敏 / 斯科特·麦克纳里 / 温斯洛·费格雷
画质标准:4K SDR  封装音轨:Dolby TrueHD 5.1 
本帖最后由 蓝鸟 于 2022-11-22 18:54 编辑

简       介


  影片改编自风靡全球的同名绘本系列,肖恩·蒙德兹献声演唱鳄鱼莱莱。
  故事讲述了小男孩乔什·普利姆跟随父母举家搬进大城市的新居,和一只住在阁楼上、能舞会唱的鳄鱼成为好朋友的奇遇故事。自带欢乐属性的鳄鱼莱莱治愈了难以适应新环境的乔什,乔什也努力消除父母对莱莱的偏见。两小只开启前所未有的都市历险,历经重重欢乐闹剧,莱莱与普利姆一家最终成为了彼此的家人与伙伴。



影片参数
纽约爱音鳄(港) / 鳄鱼歌王(台) / 鳄鱼莱尔/鳄鱼莱莱4k.Lyle.Lyle.Crocodile.2022.2160p.WEB-DL.x265.10bit.SDR.DDP5.1.Atmos-电影信息
Video
ID : 1
Format : HEVC
Format/Info : High Efficiency Video Coding
Format profile : Main 10@L5@High
Codec ID : V_MPEGH/ISO/HEVC
Duration : 1 h 46 min
Bit rate : 12.0 Mb/s
Width : 3 840 pixels
Height : 1 606 pixels
Display aspect ratio : 2.40:1
Frame rate mode : Constant
Frame rate : 23.976 FPS
Color space : YUV
Chroma subsampling : 4:2:0
Bit depth : 10 bits
Bits/(Pixel*Frame) : 0.081
Stream size : 8.93 GiB (94%)
Language : English
Default : Yes
Forced : No
Color range : Limited
Color primaries : BT.709
Transfer characteristics : BT.709
Matrix coefficients : BT.709


Audio
ID : 2
Format : E-AC-3 JOC
Format/Info : Enhanced AC-3 with Joint Object Coding
Commercial name : Dolby Digital Plus with Dolby Atmos
Codec ID : A_EAC3
Duration : 1 h 46 min
Bit rate mode : Constant
Bit rate : 768 kb/s
Channel(s) : 6 channels
Channel layout : L R C LFE Ls Rs
Sampling rate : 48.0 kHz
Frame rate : 31.250 FPS (1536 SPF)
Compression mode : Lossy
Stream size : 586 MiB (6%)
Language : English
Service kind : Complete Main
Default : Yes
Forced : No
Complexity index : 16
Number of dynamic objects : 15
Bed channel count : 1 channel
Bed channel configuration : LFE


Text #1
ID : 3
Format : UTF-8
Codec ID : S_TEXT/UTF8
Codec ID/Info : UTF-8 Plain Text
Duration : 1 h 38 min
Bit rate : 51 b/s
Frame rate : 0.210 FPS
Count of elements : 1249
Stream size : 37.5 KiB (0%)
Title : British
Language : English
Default : No
Forced : No


Text #2
ID : 4
Format : UTF-8
Codec ID : S_TEXT/UTF8
Codec ID/Info : UTF-8 Plain Text
Duration : 1 h 38 min
Bit rate : 51 b/s
Frame rate : 0.210 FPS
Count of elements : 1249
Stream size : 37.5 KiB (0%)
Language : English
Default : No
Forced : No


Text #3
ID : 5
Format : UTF-8
Codec ID : S_TEXT/UTF8
Codec ID/Info : UTF-8 Plain Text
Duration : 1 h 44 min
Bit rate : 68 b/s
Frame rate : 0.272 FPS
Count of elements : 1703
Stream size : 52.2 KiB (0%)
Title : SDH
Language : English
Default : No
Forced : No


Text #4
ID : 6
Format : UTF-8
Codec ID : S_TEXT/UTF8
Codec ID/Info : UTF-8 Plain Text
Duration : 1 h 45 min
Bit rate : 43 b/s
Frame rate : 0.192 FPS
Count of elements : 1217
Stream size : 34.0 KiB (0%)
Language : Indonesian
Default : No
Forced : No


Text #5
ID : 7
Format : UTF-8
Codec ID : S_TEXT/UTF8
Codec ID/Info : UTF-8 Plain Text
Duration : 1 h 45 min
Bit rate : 63 b/s
Frame rate : 0.194 FPS
Count of elements : 1228
Stream size : 48.9 KiB (0%)
Language : Vietnamese
Default : No
Forced : No


Text #6
ID : 8
Format : UTF-8
Codec ID : S_TEXT/UTF8
Codec ID/Info : UTF-8 Plain Text
Duration : 1 h 45 min
Bit rate : 42 b/s
Frame rate : 0.193 FPS
Count of elements : 1226
Stream size : 32.9 KiB (0%)
Title : Traditional
Language : Chinese
Default : No
Forced : No


Menu
00:00:00.000 : en:Chapter 01
00:05:30.205 : en:Chapter 02
00:12:30.166 : en:Chapter 03
00:19:28.960 : en:Chapter 04
00:25:47.047 : en:Chapter 05
00:32:14.392 : en:Chapter 06
00:38:41.112 : en:Chapter 07
00:46:31.875 : en:Chapter 08
00:52:39.200 : en:Chapter 09
00:59:03.418 : en:Chapter 10
01:05:06.031 : en:Chapter 11
01:11:06.474 : en:Chapter 12
01:18:27.040 : en:Chapter 13
01:26:05.915 : en:Chapter 14
01:30:00.900 : en:Chapter 15
01:38:56.644 : en:Chapter 16


蓝光高清网提示您 点击下方附件名称 即可开始下载


多版本下载时请注意区分


纽约爱音鳄(港) / 鳄鱼歌王(台) / 鳄鱼莱尔/鳄鱼莱莱4k.Lyle.Lyle.Crocodile.2022.2160p.WEB-DL.x265.10bit.SDR.DDP5.1.Atmos-电影下载

鳄鱼莱莱4k.Lyle.Lyle.Crocodile.2022.2160p.WEB-DL.x265.10bit.SDR.DDP5.1.Atmos-中字【9.51 GB】

鳄鱼莱莱4k.Lyle.Lyle.Crocodile.2022.2160p.WEB-DL.x265.10bit.SDR.DDP5.1.Atmos-SMURF.torrent ( 24.44 KB )



鳄鱼莱莱4k.Lyle.Lyle.Crocodile.2022.2160p.WEB-DL.x265.10bit.HDR.DDP5.1.Atmos-中字【18.90 GB】

鳄鱼莱莱4k.Lyle.Lyle.Crocodile.2022.2160p.WEB-DL.x265.10bit.HDR.DDP5.1.Atmos-SMURF.torrent ( 24.3 KB )



鳄鱼莱莱4k.Lyle.Lyle.Crocodile.2022.2160p.WEB-DL.DDP5.1.Atmos.DV.MP4.x265【杜比视界】【11.38 GB】

鳄鱼莱莱4k.Lyle.Lyle.Crocodile.2022.2160p.WEB-DL.DDP5.1.Atmos.DV.MP4.x265-DVSUX.torrent ( 14.89 KB )



鳄鱼莱莱4k.Lyle.Lyle.Crocodile.2022.2160p.WEB-DL.DDP5.1.Atmos.DV.MKV.x265【杜比视界】【11.38 GB】

鳄鱼莱莱4k.Lyle.Lyle.Crocodile.2022.2160p.WEB-DL.DDP5.1.Atmos.DV.MKV.x265-DVSUX.torrent ( 14.89 KB )



加入蓝光高清网VIP会员  无限制下载本站所有资源---点这里

资源下载、资源播放、字幕使用、无法下载等常见问题---点这里
回复

使用道具 举报

全部回复1 显示全部楼层
gdlmxia 发表于 4 天前 | 显示全部楼层
太好啦&萬分感謝版主的無私發佈分享%
回复 支持 反对

使用道具 举报

发表回复

您需要登录后才可以回帖 登录 | 立即注册

本版积分规则

开通会员 帮助中心 返回顶部 返回列表