本站已运行

蓝光高清网

搜索
开启左侧

女战不败(港) / 女王 / 达荷美女王/达荷美女战士4k.The.Woman.King.2022.2160p.WEB-DL.x265.10bit.SDR.DDP5.1.Atmos-4k电影下载

蓝鸟 发表于 5 天前 | 显示全部楼层 |阅读模式
达荷美女战士 豆瓣评分: 5.8分
上映时间:2022年
类型:剧情 历史 
地区:美国 
导演:吉娜·普林斯-拜斯伍德
主演:维奥拉·戴维斯 / 图索·姆贝杜 / 拉什纳·林奇 / 希拉·阿蒂姆 / 约翰·博耶加
画质标准:4K SDR  封装音轨:Dolby TrueHD 5.1 
简       介


  影片讲述了史上最英勇女战士的非凡故事,改编自发生在19世纪非洲西海岸的真实历史事件。
  当外来侵略者虎视眈眈,位于西非的达荷美王国组建了一支完全由女性组成的军团,她们骁勇善战、所向披靡,誓要粉碎侵略者的野心。影片展现了纳尼斯卡将军震撼人心的旅程——她训练下一代新兵,并让她们做好准备,不惜一切代价保卫家园……



影片参数
女战不败(港) / 女王 / 达荷美女王/达荷美女战士4k.The.Woman.King.2022.2160p.WEB-DL.x265.10bit.SDR.DDP5.1.Atmos-4k电影信息
Video
ID : 1
Format : HEVC
Format/Info : High Efficiency Video Coding
Format profile : Main 10@L5@High
Codec ID : V_MPEGH/ISO/HEVC
Duration : 2 h 14 min
Bit rate : 11.8 Mb/s
Width : 3 840 pixels
Height : 1 604 pixels
Display aspect ratio : 2.40:1
Frame rate mode : Constant
Frame rate : 23.976 (24000/1001) FPS
Color space : YUV
Chroma subsampling : 4:2:0
Bit depth : 10 bits
Bits/(Pixel*Frame) : 0.080
Stream size : 11.1 GiB (92%)
Language : English
Default : Yes
Forced : No
Color range : Limited
Color primaries : BT.709
Transfer characteristics : BT.709
Matrix coefficients : BT.709


Audio
ID : 2
Format : E-AC-3 JOC
Format/Info : Enhanced AC-3 with Joint Object Coding
Commercial name : Dolby Digital Plus with Dolby Atmos
Codec ID : A_EAC3
Duration : 2 h 14 min
Bit rate mode : Constant
Bit rate : 768 kb/s
Channel(s) : 6 channels
Channel layout : L R C LFE Ls Rs
Sampling rate : 48.0 kHz
Frame rate : 31.250 FPS (1536 SPF)
Compression mode : Lossy
Stream size : 741 MiB (6%)
Language : English
Service kind : Complete Main
Default : Yes
Forced : No
Complexity index : 16
Number of dynamic objects : 15
Bed channel count : 1 channel
Bed channel configuration : LFE


Text #1
ID : 3
Format : UTF-8
Codec ID : S_TEXT/UTF8
Codec ID/Info : UTF-8 Plain Text
Title : English
Language : English
Default : No
Forced : No


Text #2
ID : 4
Format : UTF-8
Codec ID : S_TEXT/UTF8
Codec ID/Info : UTF-8 Plain Text
Title : English [Forced]
Language : English
Default : Yes
Forced : Yes


Text #3
ID : 5
Format : UTF-8
Codec ID : S_TEXT/UTF8
Codec ID/Info : UTF-8 Plain Text
Title : English
Language : English
Default : No
Forced : No


Text #4
ID : 6
Format : UTF-8
Codec ID : S_TEXT/UTF8
Codec ID/Info : UTF-8 Plain Text
Title : English
Language : English
Default : No
Forced : No


Text #5
ID : 7
Format : UTF-8
Codec ID : S_TEXT/UTF8
Codec ID/Info : UTF-8 Plain Text
Title : Chinese Yue
Language : Chinese
Default : No
Forced : No


Text #6
ID : 8
Format : UTF-8
Codec ID : S_TEXT/UTF8
Codec ID/Info : UTF-8 Plain Text
Title : Dutch
Language : Dutch
Default : No
Forced : No


Text #7
ID : 9
Format : UTF-8
Codec ID : S_TEXT/UTF8
Codec ID/Info : UTF-8 Plain Text
Title : French
Language : French
Default : No
Forced : No


蓝光高清网提示您 点击下方附件名称 即可开始下载


多版本下载时请注意区分


女战不败(港) / 女王 / 达荷美女王/达荷美女战士4k.The.Woman.King.2022.2160p.WEB-DL.x265.10bit.SDR.DDP5.1.Atmos-4k电影下载

达荷美女战士4k.The.Woman.King.2022.2160p.WEB-DL.x265.10bit.SDR.DDP5.1.Atmos【12.16 GB】

达荷美女战士4k.The.Woman.King.2022.2160p.WEB-DL.x265.10bit.SDR.DDP5.1.Atmos-NAISU- 4K.torrent ( 15.99 KB )



达荷美女战士4k.The.Woman.King.2022.2160p.WEB-DL.x265.10bit.HDR.DDP5.1.Atmos【24.01 GB】

达荷美女战士4k.The.Woman.King.2022.2160p.WEB-DL.x265.10bit.HDR.DDP5.1.Atmos-NAISU- 4K.torrent ( 30.81 KB )



达荷美女战士4k.The.Woman.King.2022.2160p.WEB-DL.DDP5.1.Atmos.DV.MP4.x265【23.95 GB】

达荷美女战士4k.The.Woman.King.2022.2160p.WEB-DL.DDP5.1.Atmos.DV.MP4.x265-DVSUX- 4K.torrent ( 30.58 KB )



达荷美女战士4k.The.Woman.King.2022.2160p.WEB-DL.DDP5.1.Atmos.DV.MKV.x265【24.03 GB】

达荷美女战士4k.The.Woman.King.2022.2160p.WEB-DL.DDP5.1.Atmos.DV.MKV.x265-NAISU- 4K.torrent ( 30.84 KB )



达荷美女战士 4k电影中文字幕下载
https://www.4kii.com/thread-116118-1-1.html

加入蓝光高清网VIP会员  无限制下载本站所有资源---点这里

资源下载、资源播放、字幕使用、无法下载等常见问题---点这里
回复

使用道具 举报

全部回复1 显示全部楼层
gdlmxia 发表于 5 天前 | 显示全部楼层
太好啦&萬分感謝版主的無私發佈分享%
回复 支持 反对

使用道具 举报

发表回复

您需要登录后才可以回帖 登录 | 立即注册

本版积分规则

开通会员 帮助中心 返回顶部 返回列表