本站已运行

蓝光高清网

搜索
开启左侧

海军罪案调查处:夏威夷 第二季4k.NCIS.Hawaii.S02E01.2160p.WEB.H265-4k美剧下载

蓝鸟 发表于 4 天前 | 显示全部楼层 |阅读模式
海军罪案调查处:夏威夷 豆瓣评分: 无评分

状态:第二季(更新至第8集)
上映时间:2022-09-19
类型:动作 剧情 犯罪 
地区:美国
导演:未知
主演:凡妮莎·米尼洛 / Alex Tarrant / 诺亚·米尔斯 / 雅斯敏·阿尔-比施塔米 / 杰森·安顿
画质标准:4K(3840x2160) 封装音轨:5.1声道 音轨编码:其他DD
剧情简介
暂无简介....
本帖最后由 蓝鸟 于 2022-11-23 13:34 编辑

影片参数

海军罪案调查处:夏威夷 第二季4k.NCIS.Hawaii.S02E01.2160p.WEB.H265-4k美剧信息
Video
ID : 1
Format : HEVC
Format/Info : High Efficiency Video Coding
Format profile : Main 10@L5@High
Codec ID : V_MPEGH/ISO/HEVC
Duration : 41 min 39 s
Bit rate : 11.7 Mb/s
Width : 3 840 pixels
Height : 2 160 pixels
Display aspect ratio : 16:9
Frame rate mode : Constant
Frame rate : 23.976 (24000/1001) FPS
Color space : YUV
Chroma subsampling : 4:2:0
Bit depth : 10 bits
Bits/(Pixel*Frame) : 0.059
Stream size : 3.40 GiB (95%)
Language : English
Default : Yes
Forced : No
Color range : Limited
Color primaries : BT.709
Transfer characteristics : BT.709
Matrix coefficients : BT.709


Audio
ID : 2
Format : AC-3
Format/Info : Audio Coding 3
Commercial name : Dolby Digital
Codec ID : A_AC3
Duration : 41 min 39 s
Bit rate mode : Constant
Bit rate : 384 kb/s
Channel(s) : 6 channels
Channel layout : L R C LFE Ls Rs
Sampling rate : 48.0 kHz
Frame rate : 31.250 FPS (1536 SPF)
Compression mode : Lossy
Stream size : 114 MiB (3%)
Language : English
Service kind : Complete Main
Default : Yes
Forced : No


Text
ID : 3
Format : UTF-8
Codec ID : S_TEXT/UTF8
Codec ID/Info : UTF-8 Plain Text
Title : English
Language : English
Default : No
Forced : No

蓝光高清网提示您 点击下方附件名称 即可开始下载


海军罪案调查处:夏威夷 第二季4k.NCIS.Hawaii.S02E01.2160p.WEB.H265-4k美剧下载

海军罪案调查处:夏威夷 第二季4k.NCIS.Hawaii.S02E01.2160p.WEB.H265【3.59 GB】

海军罪案调查处:夏威夷 第二季4k.NCIS.Hawaii.S02E01.2160p.WEB.H265-GLHF[rartv].torrent ( 18.65 KB )



海军罪案调查处:夏威夷 第二季4k.NCIS.Hawaii.S02E02.2160p.WEB.H265【3.66 GB】

海军罪案调查处:夏威夷 第二季4k.NCIS.Hawaii.S02E02.2160p.WEB.H265-GLHF[rartv].torrent ( 19.02 KB )



海军罪案调查处:夏威夷 第二季4k.NCIS.Hawaii.S02E03.2160p.WEB.H265【3.75 GB】

海军罪案调查处:夏威夷 第二季4k.NCIS.Hawaii.S02E03.2160p.WEB.H265-GLHF[rartv].torrent ( 19.47 KB )



海军罪案调查处:夏威夷 第二季4k.NCIS.Hawaii.S02E04.2160p.WEB.H265【3.59 GB】

海军罪案调查处:夏威夷 第二季4k.NCIS.Hawaii.S02E04.2160p.WEB.H265-GLHF[rartv].torrent ( 18.65 KB )



海军罪案调查处:夏威夷 第二季4k.NCIS.Hawaii.S02E05.2160p.WEB.H265【3.69 GB】

海军罪案调查处:夏威夷 第二季4k.NCIS.Hawaii.S02E05.2160p.WEB.H265-GLHF[rartv].torrent ( 19.18 KB )



海军罪案调查处:夏威夷 第二季4k.NCIS.Hawaii.S02E06.2160p.WEB.H265【3.58 GB】

海军罪案调查处:夏威夷 第二季4k.NCIS.Hawaii.S02E07.2160p.WEB.H265-GLHF[rartv].torrent ( 19.19 KB )



海军罪案调查处:夏威夷 第二季4k.NCIS.Hawaii.S02E07.2160p.WEB.H265【3.68 GB】

海军罪案调查处:夏威夷 第二季4k.NCIS.Hawaii.S02E06.2160p.WEB.H265-GLHF[rartv].torrent ( 18.59 KB )



海军罪案调查处:夏威夷 第二季4k.NCIS.Hawaii.S02E08.2160p.WEB.H265【3.65 GB】

海军罪案调查处:夏威夷 第二季4k.NCIS.Hawaii.S02E08.2160p.WEB.H265-GLHF[rartv].torrent ( 18.95 KB )


加入蓝光高清网VIP会员  无限制下载本站所有资源---点这里

资源下载、资源播放、字幕使用、无法下载等常见问题---点这里
回复

使用道具 举报

全部回复0 显示全部楼层

发表回复

您需要登录后才可以回帖 登录 | 立即注册

本版积分规则

开通会员 帮助中心 返回顶部 返回列表