本站已运行

蓝光高清网

搜索
开启左侧

晚安Oppy/晚安机遇号4k.Good.Night.Oppy.2022.2160p.AMZN.WEB-DL.x265.10bit.HDR10Plus.DDP5.1-纪录片下载

蓝鸟 发表于 3 天前 | 显示全部楼层 |阅读模式
晚安机遇号 豆瓣评分: 无评分
上映时间:2022年
类型:纪录 
地区:美国 
导演:瑞恩·怀特
主演:机遇号
画质标准:4K HDR  封装音轨:Dolby TrueHD 5.1 
本帖最后由 蓝鸟 于 2022-11-24 09:46 编辑


简       介


  这部电影讲述的是“机遇号”火星探测车的故事,它的创造者和美国宇航局的科学家们亲切地给它起了个名字,叫“机遇号”。机遇号最初的预期寿命只有90天,但它最终在火星上探索了近15年。


影片参数

晚安Oppy/晚安机遇号4k.Good.Night.Oppy.2022.2160p.AMZN.WEB-DL.x265.10bit.HDR10Plus.DDP5.1-纪录片信息
Video
ID : 1
Format : HEVC
Format/Info : High Efficiency Video Coding
Format profile : Main 10@L5@Main
HDR format : SMPTE ST 2094 App 4, Version 1, HDR10+ Profile B compatible
Codec ID : V_MPEGH/ISO/HEVC
Duration : 1 h 44 min
Bit rate : 14.2 Mb/s
Width : 3 840 pixels
Height : 1 920 pixels
Display aspect ratio : 2.000
Frame rate mode : Constant
Frame rate : 23.976 (24000/1001) FPS
Color space : YUV
Chroma subsampling : 4:2:0
Bit depth : 10 bits
Bits/(Pixel*Frame) : 0.080
Stream size : 10.4 GiB (94%)
Default : Yes
Forced : No
Color range : Limited
Color primaries : BT.2020
Transfer characteristics : PQ
Matrix coefficients : BT.2020 non-constant
Mastering display color primaries : Display P3
Mastering display luminance : min: 0.0001 cd/m2, max: 1000 cd/m2
Maximum Content Light Level : 512 cd/m2
Maximum Frame-Average Light Level : 145 cd/m2


Audio
ID : 2
Format : E-AC-3
Format/Info : Enhanced AC-3
Commercial name : Dolby Digital Plus
Codec ID : A_EAC3
Duration : 1 h 44 min
Bit rate mode : Constant
Bit rate : 640 kb/s
Channel(s) : 6 channels
Channel layout : L R C LFE Ls Rs
Sampling rate : 48.0 kHz
Frame rate : 31.250 FPS (1536 SPF)
Compression mode : Lossy
Stream size : 481 MiB (4%)
Language : English
Service kind : Complete Main
Default : Yes
Forced : No


Text #1
ID : 3
Format : UTF-8
Codec ID : S_TEXT/UTF8
Codec ID/Info : UTF-8 Plain Text
Title : English [SDH]
Language : English
Default : No
Forced : No


Text #2
ID : 4
Format : UTF-8
Codec ID : S_TEXT/UTF8
Codec ID/Info : UTF-8 Plain Text
Title : Arabic
Language : Arabic
Default : No
Forced : No


Text #3
ID : 5
Format : UTF-8
Codec ID : S_TEXT/UTF8
Codec ID/Info : UTF-8 Plain Text
Title : Chinese Simplified
Language : Chinese
Default : No
Forced : No


Text #4
ID : 6
Format : UTF-8
Codec ID : S_TEXT/UTF8
Codec ID/Info : UTF-8 Plain Text
Title : Chinese Traditional
Language : Chinese
Default : No
Forced : No

蓝光高清网提示您 点击下方附件名称 即可开始下载


晚安Oppy/晚安机遇号4k.Good.Night.Oppy.2022.2160p.AMZN.WEB-DL.x265.10bit.HDR10Plus.DDP5.1-纪录片下载

晚安机遇号4k.Good.Night.Oppy.2022.2160p.AMZN.WEB-DL.x265.10bit.HDR10Plus.DDP5.1-简繁中字【11.10 GB】

晚安机遇号4k.Good.Night.Oppy.2022.2160p.AMZN.WEB-DL.x265.10bit.HDR10Plus.DDP5.1-BIGDOC.torrent ( 14.57 KB )


加入蓝光高清网VIP会员  无限制下载本站所有资源---点这里

资源下载、资源播放、字幕使用、无法下载等常见问题---点这里
回复

使用道具 举报

全部回复0 显示全部楼层

发表回复

您需要登录后才可以回帖 登录 | 立即注册

本版积分规则

开通会员 帮助中心 返回顶部 返回列表