本站已运行

蓝光高清网

搜索
开启左侧

二十世纪少女 / 20th Century Girl/20世纪少女4k.20th.Century.Girl.2022.KOREAN.2160p.NF.WEB-DL.x265.10bit.SDR.DDP5.1.Atmos-4k电影下载

蓝鸟 发表于 3 天前 | 显示全部楼层 |阅读模式
20世纪少女 豆瓣评分: 6.9分
上映时间:2022年
类型:爱情 
地区:韩国 
导演:方宥力
主演:金裕贞 / 边佑锡 / 朴柾佑 / 卢润序 / 韩孝周
画质标准:4K SDR  封装音轨:Dolby TrueHD 5.1 
简       介


  2019 年冬天收到的一盘录像带唤起了对 20 世纪的回忆。
  “从现在起,你会知道他所做的一切。
  你可以相信我!”
  1999 年,17 岁的宝拉(金裕贞饰)面临着在她少女时期(此时友谊胜过一切,甚至是爱情)最重要的任务:她的朋友妍度(卢仑㥠饰)要去海外接受心脏手术,宝拉必须观察妍度的初恋并实时汇报。
  “他的名字叫白贤振,身高 181 厘米,鞋码 280 毫米,喜欢篮球。
  他总是和自己的好朋友形影不离。”
  为了解关于贤振(朴柾佑饰)的一切,宝拉把目标瞄准了他最好的朋友云浩(边佑锡饰)。
  然而,事情并没有按计划进行,宝拉惊讶地发现自己可能已经坠入爱河。



影片参数

二十世纪少女 / 20th Century Girl/20世纪少女4k.20th.Century.Girl.2022.KOREAN.2160p.NF.WEB-DL.x265.10bit.SDR.DDP5.1.Atmos-4k电影信息
Video
ID : 1
Format : HEVC
Format/Info : High Efficiency Video Coding
Format profile : Main 10@L5@Main
Codec ID : V_MPEGH/ISO/HEVC
Duration : 2 h 1 min
Bit rate : 11.7 Mb/s
Width : 3 840 pixels
Height : 2 160 pixels
Display aspect ratio : 16:9
Frame rate mode : Constant
Frame rate : 23.976 (24000/1001) FPS
Color space : YUV
Chroma subsampling : 4:2:0
Bit depth : 10 bits
Bits/(Pixel*Frame) : 0.059
Stream size : 9.94 GiB (94%)
Default : Yes
Forced : No
Color range : Limited
Color primaries : BT.709
Transfer characteristics : BT.709
Matrix coefficients : BT.709


Audio
ID : 2
Format : E-AC-3 JOC
Format/Info : Enhanced AC-3 with Joint Object Coding
Commercial name : Dolby Digital Plus with Dolby Atmos
Codec ID : A_EAC3
Duration : 2 h 1 min
Bit rate mode : Constant
Bit rate : 768 kb/s
Channel(s) : 6 channels
Channel layout : L R C LFE Ls Rs
Sampling rate : 48.0 kHz
Frame rate : 31.250 FPS (1536 SPF)
Compression mode : Lossy
Stream size : 665 MiB (6%)
Language : Korean
Service kind : Complete Main
Default : Yes
Forced : No
Complexity index : 16
Number of dynamic objects : 15
Bed channel count : 1 channel
Bed channel configuration : LFE


Text #1
ID : 3
Format : UTF-8
Codec ID : S_TEXT/UTF8
Codec ID/Info : UTF-8 Plain Text
Duration : 2 s 836 ms
Bit rate : 67 b/s
Frame rate : 0.353 FPS
Count of elements : 1
Stream size : 24.0 Bytes (0%)
Title : Forced
Language : Korean
Default : Yes
Forced : Yes


Text #2
ID : 4
Format : UTF-8
Codec ID : S_TEXT/UTF8
Codec ID/Info : UTF-8 Plain Text
Duration : 1 h 55 min
Bit rate : 58 b/s
Frame rate : 0.307 FPS
Count of elements : 2122
Stream size : 49.7 KiB (0%)
Language : Korean
Default : No
Forced : No


Text #3
ID : 5
Format : UTF-8
Codec ID : S_TEXT/UTF8
Codec ID/Info : UTF-8 Plain Text
Duration : 1 h 55 min
Bit rate : 90 b/s
Frame rate : 0.307 FPS
Count of elements : 2122
Stream size : 76.2 KiB (0%)
Title : SDH
Language : Korean
Default : No
Forced : No


Text #4
ID : 6
Format : UTF-8
Codec ID : S_TEXT/UTF8
Codec ID/Info : UTF-8 Plain Text
Duration : 1 h 58 min
Bit rate : 82 b/s
Frame rate : 0.202 FPS
Count of elements : 1438
Stream size : 71.5 KiB (0%)
Language : Arabic
Default : No
Forced : No


Text #5
ID : 7
Format : UTF-8
Codec ID : S_TEXT/UTF8
Codec ID/Info : UTF-8 Plain Text
Duration : 1 h 58 min
Bit rate : 43 b/s
Frame rate : 0.200 FPS
Count of elements : 1424
Stream size : 37.6 KiB (0%)
Language : Czech
Default : No
Forced : No


Text #6
ID : 8
Format : UTF-8
Codec ID : S_TEXT/UTF8
Codec ID/Info : UTF-8 Plain Text
Duration : 1 h 58 min
Bit rate : 42 b/s
Frame rate : 0.197 FPS
Count of elements : 1406
Stream size : 37.3 KiB (0%)
Language : Danish
Default : No
Forced : No


Text #7
ID : 9
Format : UTF-8
Codec ID : S_TEXT/UTF8
Codec ID/Info : UTF-8 Plain Text
Duration : 1 h 58 min
Bit rate : 43 b/s
Frame rate : 0.200 FPS
Count of elements : 1426
Stream size : 38.1 KiB (0%)
Language : German
Default : No
Forced : No


Text #8
ID : 10
Format : UTF-8
Codec ID : S_TEXT/UTF8
Codec ID/Info : UTF-8 Plain Text
Duration : 1 h 58 min
Bit rate : 68 b/s
Frame rate : 0.192 FPS
Count of elements : 1371
Stream size : 59.6 KiB (0%)
Language : Greek
Default : No
Forced : No


Text #35
ID : 37
Format : UTF-8
Codec ID : S_TEXT/UTF8
Codec ID/Info : UTF-8 Plain Text
Duration : 1 h 58 min
Bit rate : 42 b/s
Frame rate : 0.196 FPS
Count of elements : 1398
Stream size : 36.8 KiB (0%)
Language : Swedish
Default : No
Forced : No


Text #36
ID : 38
Format : UTF-8
Codec ID : S_TEXT/UTF8
Codec ID/Info : UTF-8 Plain Text
Duration : 1 h 58 min
Bit rate : 121 b/s
Frame rate : 0.220 FPS
Count of elements : 1564
Stream size : 106 KiB (0%)
Language : Thai
Default : No
Forced : No


Text #37
ID : 39
Format : UTF-8
Codec ID : S_TEXT/UTF8
Codec ID/Info : UTF-8 Plain Text
Duration : 1 h 58 min
Bit rate : 41 b/s
Frame rate : 0.194 FPS
Count of elements : 1384
Stream size : 36.5 KiB (0%)
Language : Turkish
Default : No
Forced : No


Text #38
ID : 40
Format : UTF-8
Codec ID : S_TEXT/UTF8
Codec ID/Info : UTF-8 Plain Text
Duration : 1 h 58 min
Bit rate : 70 b/s
Frame rate : 0.196 FPS
Count of elements : 1397
Stream size : 61.7 KiB (0%)
Language : Ukrainian
Default : No
Forced : No


Text #39
ID : 41
Format : UTF-8
Codec ID : S_TEXT/UTF8
Codec ID/Info : UTF-8 Plain Text
Duration : 1 h 58 min
Bit rate : 65 b/s
Frame rate : 0.197 FPS
Count of elements : 1402
Stream size : 56.9 KiB (0%)
Language : Vietnamese
Default : No
Forced : No


Text #40
ID : 42
Format : UTF-8
Codec ID : S_TEXT/UTF8
Codec ID/Info : UTF-8 Plain Text
Duration : 1 h 58 min
Bit rate : 45 b/s
Frame rate : 0.213 FPS
Count of elements : 1515
Stream size : 39.8 KiB (0%)
Title : Simplified
Language : Chinese
Default : No
Forced : No


Text #41
ID : 43
Format : UTF-8
Codec ID : S_TEXT/UTF8
Codec ID/Info : UTF-8 Plain Text
Duration : 1 h 58 min
Bit rate : 42 b/s
Frame rate : 0.195 FPS
Count of elements : 1387
Stream size : 37.1 KiB (0%)
Title : Traditional
Language : Chinese
Default : No
Forced : No


蓝光高清网提示您 点击下方附件名称 即可开始下载


二十世纪少女 / 20th Century Girl/20世纪少女4k.20th.Century.Girl.2022.KOREAN.2160p.NF.WEB-DL.x265.10bit.SDR.DDP5.1.Atmos-4k电影下载


20世纪少女4k.20th.Century.Girl.2022.KOREAN.2160p.NF.WEB-DL.x265.10bit.SDR.DDP5.1.Atmos-简繁中字【10.59 GB】

20世纪少女4k.20th.Century.Girl.2022.KOREAN.2160p.NF.WEB-DL.x265.10bit.SDR.DDP5.1.Atmos-MARK.torrent ( 13.88 KB )


加入蓝光高清网VIP会员  无限制下载本站所有资源---点这里

资源下载、资源播放、字幕使用、无法下载等常见问题---点这里
回复

使用道具 举报

全部回复1 显示全部楼层
gdlmxia 发表于 昨天 18:43 | 显示全部楼层
太好啦&萬分感謝版主的無私發佈分享%
回复 支持 反对

使用道具 举报

发表回复

您需要登录后才可以回帖 登录 | 立即注册

本版积分规则

开通会员 帮助中心 返回顶部 返回列表