本站已运行

蓝光高清网

搜索
开启左侧

极速首尔(台) / 急速首尔 / Seoul Vibe/首尔大作战4k.Seoul.Vibe.2022.KOREAN.2160p.NF.WEB-DL.x265.10bit.SDR.DDP5.1.Atmos-电影下载

蓝鸟 发表于 3 天前 | 显示全部楼层 |阅读模式
首尔大作战 豆瓣评分: 5.2分
上映时间:2022年
类型:喜剧 动作 剧情 犯罪 
地区:韩国 
导演:文贤盛
主演:刘亚仁 / 高庚杓 / 朴柱炫 / 文素丽 / 李奎炯
画质标准:4K SDR  封装音轨:Dolby TrueHD 5.1 

影片参数

极速首尔(台) / 急速首尔 / Seoul Vibe/首尔大作战4k.Seoul.Vibe.2022.KOREAN.2160p.NF.WEB-DL.x265.10bit.SDR.DDP5.1.Atmos-电影信息
Video
ID : 1
Format : HEVC
Format/Info : High Efficiency Video Coding
Format profile : Main 10@L5@Main
Codec ID : V_MPEGH/ISO/HEVC
Duration : 2 h 20 min
Bit rate : 12.0 Mb/s
Width : 3 840 pixels
Height : 2 160 pixels
Display aspect ratio : 16:9
Frame rate mode : Constant
Frame rate : 23.976 (24000/1001) FPS
Color space : YUV
Chroma subsampling : 4:2:0
Bit depth : 10 bits
Bits/(Pixel*Frame) : 0.060
Stream size : 11.7 GiB (94%)
Default : Yes
Forced : No
Color range : Limited
Color primaries : BT.709
Transfer characteristics : BT.709
Matrix coefficients : BT.709


Audio
ID : 2
Format : E-AC-3 JOC
Format/Info : Enhanced AC-3 with Joint Object Coding
Commercial name : Dolby Digital Plus with Dolby Atmos
Codec ID : A_EAC3
Duration : 2 h 20 min
Bit rate mode : Constant
Bit rate : 768 kb/s
Channel(s) : 6 channels
Channel layout : L R C LFE Ls Rs
Sampling rate : 48.0 kHz
Frame rate : 31.250 FPS (1536 SPF)
Compression mode : Lossy
Stream size : 770 MiB (6%)
Language : Korean
Service kind : Complete Main
Default : Yes
Forced : No
Complexity index : 16
Number of dynamic objects : 15
Bed channel count : 1 channel
Bed channel configuration : LFE


Text #1
ID : 3
Format : UTF-8
Codec ID : S_TEXT/UTF8
Codec ID/Info : UTF-8 Plain Text
Duration : 46 min 23 s
Bit rate : 0 b/s
Frame rate : 0.004 FPS
Count of elements : 11
Stream size : 273 Bytes (0%)
Title : Forced
Language : Korean
Default : Yes
Forced : Yes


Text #2
ID : 4
Format : UTF-8
Codec ID : S_TEXT/UTF8
Codec ID/Info : UTF-8 Plain Text
Duration : 2 h 14 min
Bit rate : 69 b/s
Frame rate : 0.342 FPS
Count of elements : 2764
Stream size : 68.6 KiB (0%)
Language : Korean
Default : No
Forced : No


Text #32
ID : 34
Format : UTF-8
Codec ID : S_TEXT/UTF8
Codec ID/Info : UTF-8 Plain Text
Duration : 2 h 17 min
Bit rate : 50 b/s
Frame rate : 0.213 FPS
Count of elements : 1762
Stream size : 50.9 KiB (0%)
Language : Swedish
Default : No
Forced : No


Text #33
ID : 35
Format : UTF-8
Codec ID : S_TEXT/UTF8
Codec ID/Info : UTF-8 Plain Text
Duration : 2 h 17 min
Bit rate : 130 b/s
Frame rate : 0.225 FPS
Count of elements : 1865
Stream size : 132 KiB (0%)
Language : Thai
Default : No
Forced : No


Text #34
ID : 36
Format : UTF-8
Codec ID : S_TEXT/UTF8
Codec ID/Info : UTF-8 Plain Text
Duration : 2 h 17 min
Bit rate : 45 b/s
Frame rate : 0.211 FPS
Count of elements : 1748
Stream size : 45.7 KiB (0%)
Language : Turkish
Default : No
Forced : No


Text #35
ID : 37
Format : UTF-8
Codec ID : S_TEXT/UTF8
Codec ID/Info : UTF-8 Plain Text
Duration : 2 h 17 min
Bit rate : 66 b/s
Frame rate : 0.209 FPS
Count of elements : 1726
Stream size : 66.8 KiB (0%)
Language : Ukrainian
Default : No
Forced : No


Text #36
ID : 38
Format : UTF-8
Codec ID : S_TEXT/UTF8
Codec ID/Info : UTF-8 Plain Text
Duration : 2 h 17 min
Bit rate : 65 b/s
Frame rate : 0.210 FPS
Count of elements : 1742
Stream size : 66.4 KiB (0%)
Language : Vietnamese
Default : No
Forced : No


Text #37
ID : 39
Format : UTF-8
Codec ID : S_TEXT/UTF8
Codec ID/Info : UTF-8 Plain Text
Duration : 2 h 17 min
Bit rate : 52 b/s
Frame rate : 0.215 FPS
Count of elements : 1777
Stream size : 52.9 KiB (0%)
Title : Simplified
Language : Chinese
Default : No
Forced : No


Text #38
ID : 40
Format : UTF-8
Codec ID : S_TEXT/UTF8
Codec ID/Info : UTF-8 Plain Text
Duration : 2 h 17 min
Bit rate : 50 b/s
Frame rate : 0.222 FPS
Count of elements : 1836
Stream size : 50.6 KiB (0%)
Title : Traditional
Language : Chinese
Default : No
Forced : No


蓝光高清网提示您 点击下方附件名称 即可开始下载


极速首尔(台) / 急速首尔 / Seoul Vibe/首尔大作战4k.Seoul.Vibe.2022.KOREAN.2160p.NF.WEB-DL.x265.10bit.SDR.DDP5.1.Atmos-电影下载

首尔大作战4k.Seoul.Vibe.2022.KOREAN.2160p.NF.WEB-DL.x265.10bit.SDR.DDP5.1.Atmos-简繁中字【12.47 GB】

首尔大作战4k.Seoul.Vibe.2022.KOREAN.2160p.NF.WEB-DL.x265.10bit.SDR.DDP5.1.Atmos-APEX.torrent ( 16.23 KB )


加入蓝光高清网VIP会员  无限制下载本站所有资源---点这里

资源下载、资源播放、字幕使用、无法下载等常见问题---点这里
回复

使用道具 举报

全部回复1 显示全部楼层
隐形人手机认证 发表于 3 天前 | 显示全部楼层
好好好好好好
回复 支持 反对

使用道具 举报

发表回复

您需要登录后才可以回帖 登录 | 立即注册

本版积分规则

开通会员 帮助中心 返回顶部 返回列表