本站已运行

蓝光高清网

搜索
开启左侧

灰姑娘:很久很久以前 / Ever After: A Cinderella Story/情话童真4k.Ever.After.A.Cinderella.Story.1998.2160p.WEB-DL.x265.10bit.HDR.DTS-HD.MA.5.1-4k电影下载

蓝鸟 发表于 3 天前 | 显示全部楼层 |阅读模式
情话童真 豆瓣评分: 7.4分
上映时间:1998年
类型:喜剧 剧情 爱情 奇幻 
地区:美国 
导演:Andy Tennant
主演:Drew Barrymore / Anjelica Huston / Dougray Scott / Megan Dodds / Melanie Lynskey
画质标准:4K HDR  封装音轨:DTS-HD.MA 5.1 
简       介


  故事发生在16世纪。丹妮尔(德鲁·巴里摩尔 Drew Barrymore 饰)从小和父亲相依为命,但父亲迎娶继母罗米拉(安杰丽卡·休斯顿 Anjelica Huston 饰)后,很快出意外身亡,丹妮尔成了灰姑娘,但依旧坚强独立、热爱生活。机缘巧合之下,丹妮尔与法国王子亨利(多格雷·斯科特 Dougray Scott 饰)相遇,还从绿林大盗手中救了王子一命,两人彼此倾心,王子更想为她拒绝家中安排的政治婚姻。但继母得知这一切后,处心积虑想让自己长女玛格丽特(梅根·多兹 Megan Dodds 饰)嫁给王子,还谎称丹妮尔只是家中女仆。王子听信了继母谎言,愤怒地放弃了丹妮尔…


影片参数
灰姑娘:很久很久以前 / Ever After: A Cinderella Story/情话童真4k.Ever.After.A.Cinderella.Story.1998.2160p.WEB-DL.x265.10bit.HDR.DTS-HD.MA.5.1-4k电影信息
Video
ID : 1
Format : HEVC
Format/Info : High Efficiency Video Coding
Format profile : Main 10@L5@High
HDR format : SMPTE ST 2086, HDR10 compatible
Codec ID : V_MPEGH/ISO/HEVC
Duration : 2 h 1 min
Bit rate : 16.4 Mb/s
Width : 3 840 pixels
Height : 2 160 pixels
Display aspect ratio : 16:9
Frame rate mode : Constant
Frame rate : 23.976 (24000/1001) FPS
Color space : YUV
Chroma subsampling : 4:2:0
Bit depth : 10 bits
Bits/(Pixel*Frame) : 0.083
Stream size : 13.9 GiB (77%)
Default : Yes
Forced : No
Color range : Limited
Color primaries : BT.2020
Transfer characteristics : PQ
Matrix coefficients : BT.2020 non-constant
Mastering display color primaries : Display P3
Mastering display luminance : min: 0.0010 cd/m2, max: 1000 cd/m2


Audio #1
ID : 2
Format : DTS XLL
Format/Info : Digital Theater Systems
Commercial name : DTS-HD Master Audio
Codec ID : A_DTS
Duration : 2 h 1 min
Bit rate mode : Variable
Bit rate : 4 214 kb/s
Channel(s) : 6 channels
Channel layout : C L R Ls Rs LFE
Sampling rate : 48.0 kHz
Frame rate : 93.750 FPS (512 SPF)
Bit depth : 24 bits
Compression mode : Lossless
Stream size : 3.57 GiB (20%)
Language : English
Default : Yes
Forced : No


Audio #2
ID : 3
Format : AC-3
Format/Info : Audio Coding 3
Commercial name : Dolby Digital
Codec ID : A_AC3
Duration : 2 h 1 min
Bit rate mode : Constant
Bit rate : 640 kb/s
Channel(s) : 6 channels
Channel layout : L R C LFE Ls Rs
Sampling rate : 48.0 kHz
Frame rate : 31.250 FPS (1536 SPF)
Compression mode : Lossy
Stream size : 555 MiB (3%)
Language : English
Service kind : Complete Main
Default : No
Forced : No


Text #1
ID : 4
Format : UTF-8
Codec ID : S_TEXT/UTF8
Codec ID/Info : UTF-8 Plain Text
Duration : 1 h 59 min
Bit rate : 57 b/s
Frame rate : 0.205 FPS
Count of elements : 1474
Stream size : 50.4 KiB (0%)
Language : English
Default : Yes
Forced : No


Text #2
ID : 5
Format : UTF-8
Codec ID : S_TEXT/UTF8
Codec ID/Info : UTF-8 Plain Text
Duration : 1 h 59 min
Bit rate : 61 b/s
Frame rate : 0.225 FPS
Count of elements : 1616
Stream size : 54.3 KiB (0%)
Title : SDH
Language : English
Default : No
Forced : No


Text #3
ID : 6
Format : UTF-8
Codec ID : S_TEXT/UTF8
Codec ID/Info : UTF-8 Plain Text
Duration : 1 h 55 min
Bit rate : 54 b/s
Frame rate : 0.209 FPS
Count of elements : 1446
Stream size : 45.7 KiB (0%)
Language : Czech
Default : No
Forced : No


Text #4
ID : 7
Format : UTF-8
Codec ID : S_TEXT/UTF8
Codec ID/Info : UTF-8 Plain Text
Duration : 1 h 55 min
Bit rate : 51 b/s
Frame rate : 0.211 FPS
Count of elements : 1457
Stream size : 43.5 KiB (0%)
Language : Danish
Default : No
Forced : No


Text #24
ID : 27
Format : UTF-8
Codec ID : S_TEXT/UTF8
Codec ID/Info : UTF-8 Plain Text
Duration : 1 h 55 min
Bit rate : 37 b/s
Frame rate : 0.211 FPS
Count of elements : 1460
Stream size : 31.3 KiB (0%)
Title : Chinese (Hong Kong SAR China)
Language : Chinese
Default : No
Forced : No


Text #25
ID : 28
Format : UTF-8
Codec ID : S_TEXT/UTF8
Codec ID/Info : UTF-8 Plain Text
Duration : 1 h 55 min
Bit rate : 45 b/s
Frame rate : 0.209 FPS
Count of elements : 1447
Stream size : 38.5 KiB (0%)
Title : Chinese (Simplified)
Language : Chinese
Default : No
Forced : No


Text #26
ID : 29
Format : UTF-8
Codec ID : S_TEXT/UTF8
Codec ID/Info : UTF-8 Plain Text
Duration : 1 h 55 min
Bit rate : 37 b/s
Frame rate : 0.211 FPS
Count of elements : 1461
Stream size : 32.0 KiB (0%)
Title : Chinese (Traditional)
Language : Chinese
Default : No
Forced : No


Menu
00:00:00.000 : en:Once Upon a Time... (Main Titles)
00:08:37.767 : enapa's Final Journey
00:11:26.686 : en:The Prince and the Servant Girl
00:15:32.932 : en:The "Family" de Ghent
00:19:11.567 : en:Matters of Life and Death
00:26:36.553 : en:Comtesse Nicole de Lancret
00:33:35.013 : en:The Unwilling Heir
00:34:41.454 : en:In Trouble
00:37:50.185 : en:The Baroness Plots
00:42:35.511 : en:A Dip With da Vinci
00:49:23.127 : en:The Wealthy "Benefactor"
00:52:32.775 : en:Your Father's Eyes
00:55:03.467 : en:The Prince Comes to Visit
01:01:59.299 : en:Marguerite Makes Her Move
01:04:54.849 : en:The Gypsies
01:07:38.179 : en:Hypnotized
01:11:22.487 : en:Rodmilla's Revenge
01:15:23.686 : en:Our Cousin Cinderella
01:17:16.090 : enove Among the Ruins
01:21:10.699 : en:The Missing Gown
01:23:45.520 : en:Go to da Vinci...
01:29:26.444 : en:Just Breathe...
01:34:34.669 : en:The Slipper
01:37:16.831 : en:The Baroness Solves Her Problem
01:41:01.305 : en:The Reluctant Bride
01:43:42.925 : en:The Property of Le Pieu
01:46:22.960 : en:My Match in Every Way
01:49:22.181 : en:The Prince's Wife
01:54:56.389 : en:Happily Ever After
01:57:06.436 : en:End Titles (Put Your Arms Around Me)


蓝光高清网提示您 点击下方附件名称 即可开始下载


灰姑娘:很久很久以前 / Ever After: A Cinderella Story/情话童真4k.Ever.After.A.Cinderella.Story.1998.2160p.WEB-DL.x265.10bit.HDR.DTS-HD.MA.5.1-4k电影下载

情话童真4k.Ever.After.A.Cinderella.Story.1998.2160p.WEB-DL.x265.10bit.HDR.DTS-HD.MA.5.1-简繁中字【18.04 GB】

情话童真4k.Ever.After.A.Cinderella.Story.1998.2160p.WEB-DL.x265.10bit.HDR.DTS-HD.MA.5.1-NOGRP.torrent ( 23.24 KB )



加入蓝光高清网VIP会员  无限制下载本站所有资源---点这里

资源下载、资源播放、字幕使用、无法下载等常见问题---点这里
回复

使用道具 举报

全部回复0 显示全部楼层

发表回复

您需要登录后才可以回帖 登录 | 立即注册

本版积分规则

开通会员 帮助中心 返回顶部 返回列表