本站已运行

蓝光高清网

搜索
开启左侧

[剧情] 魔缘 Audrey.Rose.1977.REMASTERED.1080p.BluRay.x264-GAZER 17.36GB

蓝鸟 发表于 3 天前 | 显示全部楼层 |阅读模式


标  题 魔缘
译  名 欧德丽罗丝 / 奥德丽.罗丝
片  名 Audrey Rose
年  代 1977
产  地 美国
类  别 剧情 / 惊悚 / 恐怖 / 奇幻
语  言 英语
上映日期 1977年4月6日
IMDb评分 5.8/10 (5797人评价)
豆瓣评分 5.9/10 (57人评价)
片  长 113 分钟
导  演 罗伯特·怀斯
编  剧 弗兰克·德·费里塔
演  员 安东尼·霍普金斯
       玛莎·马森
       诺曼·劳埃德
       约翰·席勒曼
       罗伯特·瓦尔登

简  介

以东方人早已有之的“再世轮回说"为题材的西片。影片一开始以一段风雨中汽车相撞的镜头作为序幕,其后,即以平静而缓慢的调子展开故事。邓普顿夫妇是住在纽约市的年轻恩爱夫妻,他们有一个十一岁的女儿艾薇,长得活泼可爱。可是自从神秘男子出现之后,这个幸福的小家庭却激起了致命的波澜。


影片参数
  1. Video
  2. ID                                       : 1
  3. Format                                   : AVC
  4. Format/Info                              : Advanced Video Codec
  5. Format profile                           : [email protected]
  6. Format settings                          : CABAC / 4 Ref Frames
  7. Format settings, CABAC                   : Yes
  8. Format settings, Reference frames        : 4 frames
  9. Codec ID                                 : V_MPEG4/ISO/AVC
  10. Duration                                 : 1 h 53 min
  11. Bit rate                                 : 21.2 Mb/s
  12. Width                                    : 1 920 pixels
  13. Height                                   : 1 038 pixels
  14. Display aspect ratio                     : 1.85:1
  15. Frame rate mode                          : Constant
  16. Frame rate                               : 23.976 (24000/1001/189150) FPS
  17. Color space                              : YUV
  18. Chroma subsampling                       : 4:2:0
  19. Bit depth                                : 8 bits
  20. Scan type                                : Progressive
  21. Bits/(Pixel*Frame)                       : 0.444
  22. Stream size                              : 16.8 GiB (97%)
  23. Writing library                          : x264 core 164 r3095 baee400
  24. Encoding settings                        : cabac=1 / ref=4 / deblock=1:-3:-3 / analyse=0x3:0x133 / me=umh / subme=10 / psy=1 / psy_rd=1.20:0.00 / mixed_ref=1 / me_range=24 / chroma_me=1 / trellis=2 / 8x8dct=1 / cqm=0 / deadzone=21,11 / fast_pskip=0 / chroma_qp_offset=-2 / threads=24 / lookahead_threads=4 / sliced_threads=0 / nr=0 / decimate=0 / interlaced=0 / bluray_compat=0 / constrained_intra=0 / bframes=8 / b_pyramid=2 / b_adapt=2 / b_bias=0 / direct=3 / weightb=1 / open_gop=0 / weightp=2 / keyint=250 / keyint_min=23 / scenecut=40 / intra_refresh=0 / rc_lookahead=60 / rc=crf / mbtree=1 / crf=23.5 / qcomp=0.60 / qpmin=0 / qpmax=69 / qpstep=4 / ip_ratio=1.40 / aq=3:0.90
  25. Default                                  : Yes
  26. Forced                                   : No
  27. Color range                              : Limited
  28. Matrix coefficients                      : BT.709

  29. Audio #1
  30. ID                                       : 2
  31. Format                                   : FLAC
  32. Format/Info                              : Free Lossless Audio Codec
  33. Codec ID                                 : A_FLAC
  34. Duration                                 : 1 h 53 min
  35. Bit rate mode                            : Variable
  36. Bit rate                                 : 637 kb/s
  37. Channel(s)                               : 1 channel
  38. Channel layout                           : C
  39. Sampling rate                            : 48.0 kHz
  40. Frame rate                               : 11.719 FPS (4096 SPF)
  41. Bit depth                                : 24 bits
  42. Compression mode                         : Lossless
  43. Stream size                              : 516 MiB (3%)
  44. Writing library                          : libFLAC 1.3.3 (UTC 2019-08-04)
  45. Language                                 : English
  46. Default                                  : Yes
  47. Forced                                   : No

  48. Audio #2
  49. ID                                       : 3
  50. Format                                   : AAC LC
  51. Format/Info                              : Advanced Audio Codec Low Complexity
  52. Codec ID                                 : A_AAC-2
  53. Duration                                 : 1 h 53 min
  54. Bit rate                                 : 101 kb/s
  55. Channel(s)                               : 2 channels
  56. Channel layout                           : L R
  57. Sampling rate                            : 48.0 kHz
  58. Frame rate                               : 46.875 FPS (1024 SPF)
  59. Compression mode                         : Lossy
  60. Delay relative to video                  : 20 ms
  61. Stream size                              : 81.6 MiB (0%)
  62. Title                                    : Commentary
  63. Language                                 : English
  64. Default                                  : No
  65. Forced                                   : No

  66. Text
  67. ID                                       : 4
  68. Format                                   : PGS
  69. Muxing mode                              : zlib
  70. Codec ID                                 : S_HDMV/PGS
  71. Codec ID/Info                            : Picture based subtitle format used on BDs/HD-DVDs
  72. Duration                                 : 1 h 51 min
  73. Bit rate                                 : 34.5 kb/s
  74. Count of elements                        : 2716
  75. Stream size                              : 27.4 MiB (0%)
  76. Title                                    : SDH
  77. Language                                 : English
  78. Default                                  : No
  79. Forced                                   : No

  80. Menu
  81. 00:00:00.000                             : Chapter 01
  82. 00:11:49.584                             : Chapter 02
  83. 00:17:00.937                             : Chapter 03
  84. 00:21:41.592                             : Chapter 04
  85. 00:30:38.795                             : Chapter 05
  86. 00:42:51.360                             : Chapter 06
  87. 00:51:59.283                             : Chapter 07
  88. 01:00:14.236                             : Chapter 08
  89. 01:09:13.816                             : Chapter 09
  90. 01:22:09.466                             : Chapter 10
  91. 01:29:42.168                             : Chapter 11
  92. 01:51:25.596                             : Chapter 12
  93. 01:53:12.285                             : Chapter 13
复制代码



蓝光高清网提示您 点击下方附件即可下载

魔缘 Audrey.Rose.1977.REMASTERED.1080p.BluRay.x264-GAZER 17.36GB

Audrey.Rose.1977.REMASTERED.1080p.BluRay.x264-GAZER.torrent ( 22.46 KB )

加入蓝光高清网VIP会员  无限制下载本站所有资源---点这里

资源下载、资源播放、字幕使用、无法下载等常见问题---点这里
回复

使用道具 举报

全部回复0 显示全部楼层

发表回复

您需要登录后才可以回帖 登录 | 立即注册

本版积分规则

开通会员 帮助中心 返回顶部 返回列表