本站已运行

蓝光高清网

搜索
开启左侧

[剧情] 碧血柔情 Kiss.the.Blood.Off.My.Hands.1948.1080p.BluRay.x264-ORBS 8.79GB

蓝鸟 发表于 3 天前 | 显示全部楼层 |阅读模式


标  题 碧血柔情
片  名 Kiss the Blood Off My Hands
年  代 1948
产  地 美国
类  别 剧情 / 黑色电影
语  言 英语
上映日期 1948-10-30
IMDb评分 6.7/10 (1320人评价)
豆瓣评分 6.3/10 (96人评价)
片  长 79 分钟
导  演 诺曼·福斯特 Norman Foster
编  剧 列奥纳多·贝尔科维奇 Leonardo Bercovici
       本·马多 Ben Maddow
       沃尔特·伯恩斯坦 Walter Bernstein
       杰拉尔德·巴特勒 Gerald Butler
       休·格雷 Hugh Gray
演  员 琼·芳登 Joan Fontaine
       伯特·兰卡斯特 Burt Lancaster
       罗伯特·牛顿 Robert Newton
       约瑟夫·格兰比 Joseph Granby
       David McMahon David McMahon
       肯纳G.肯普 Kenner G. Kemp
       Charles McNaughton Charles McNaughton
       Colin Kenny Colin Kenny
       科林·基思-约翰斯顿 Colin Keith-Johnston
       Tommy Hughes Tommy Hughes
       罗温·休斯 Robin Hughes
       Tom Pilkington Tom Pilkington
       Lora Lee Michel Lora Lee Michel
       本·怀特 Ben Wright
       哈里·威尔逊 Harry Wilson
       杰克·斯托尼 Jack Stoney
       Brick Sullivan Brick Sullivan
       哈利·坦布鲁克 Harry Tenbrook
       Wallace Scott Wallace Scott
       Lewis L. Russell Lewis L. Russell
       Jay Novello Jay Novello
       Keith Hitchcock Keith Hitchcock
       Alec Harford Alec Harford
       哈罗德·古德温 Harold Goodwin
       弗雷德·福克斯 Fred Fox
       汤姆·狄龙 Tom Dillon
       Reginald Sheffield Reginald Sheffield
       Valerie Cardew Valerie Cardew
       哈利·考丁 Harry Cording
       George Bunny George Bunny
       Jimmy Aubrey Jimmy Aubrey
       Harry Allen Harry Allen
       Leslie Denison Leslie Denison
       Art Foster Art Foster
       亚瑟古尔德波特 Arthur Gould-Porter
       Grizelda Harvey Grizelda Harvey
       John George John George
       Duke Green Duke Green
       Bobby Hale Bobby Hale
       Wesley Hopper Wesley Hopper
       莱兰·霍奇森 Leyland Hodgson
       弗兰克·哈格尼 Frank Hagney
       Aminta Dyne Aminta Dyne
       Al Ferguson Al Ferguson
       David Dunbar David Dunbar
       Kenneth Harvey Kenneth Harvey
       哈罗德·赫克特 Harold Hecht
       Norman Deming Norman Deming
       米克罗斯·罗兹萨 Miklós Rózsa
       拉塞尔·麦蒂 Russell Metty
       Milton Carruth Milton Carruth
       伯纳德·赫兹布伦 Bernard Herzbrun
       纳森·朱兰 Nathan Juran
       罗素·A·盖斯曼 Russell A. Gausman
       鲁比·R·莱维特 Ruby R. Levitt
       Carmen Dirigo Carmen Dirigo
       Robert J. Schiffer Robert J. Schiffer
       百德·沃斯塔梅尔 Bud Westmore
       Jack Voglin Jack Voglin

简  介

Bill Saunders, disturbed ex-soldier, kills a man in a postwar London pub brawl. Fleeing, he hides out in the apartment of lonely nurse Jane Wharton. Later, despite misgivings about his violent nature, Jane becomes involved with Bill, who resolves to reform. She gets him a job driving a medical supplies truck. But racketeer Harry Carter, who witnessed the killing, wants to use B...


影片参数
  1. Video
  2. ID                                       : 1
  3. Format                                   : AVC
  4. Format/Info                              : Advanced Video Codec
  5. Format profile                           : [email protected]
  6. Format settings                          : CABAC / 5 Ref Frames
  7. Format settings, CABAC                   : Yes
  8. Format settings, Reference frames        : 5 frames
  9. Codec ID                                 : V_MPEG4/ISO/AVC
  10. Duration                                 : 1 h 19 min
  11. Bit rate                                 : 15.2 Mb/s
  12. Width                                    : 1 480 pixels
  13. Height                                   : 1 080 pixels
  14. Display aspect ratio                     : 1.370
  15. Frame rate mode                          : Constant
  16. Frame rate                               : 23.976 (24000/1001/189150) FPS
  17. Color space                              : YUV
  18. Chroma subsampling                       : 4:2:0
  19. Bit depth                                : 8 bits
  20. Scan type                                : Progressive
  21. Bits/(Pixel*Frame)                       : 0.396
  22. Stream size                              : 8.39 GiB (95%)
  23. Writing library                          : x264 core 164 r3095 baee400
  24. Encoding settings                        : cabac=1 / ref=5 / deblock=1:-3:-3 / analyse=0x3:0x133 / me=umh / subme=10 / psy=1 / psy_rd=1.20:0.00 / mixed_ref=1 / me_range=24 / chroma_me=1 / trellis=2 / 8x8dct=1 / cqm=0 / deadzone=21,11 / fast_pskip=0 / chroma_qp_offset=-2 / threads=24 / lookahead_threads=4 / sliced_threads=0 / nr=0 / decimate=0 / interlaced=0 / bluray_compat=0 / constrained_intra=0 / bframes=8 / b_pyramid=2 / b_adapt=2 / b_bias=0 / direct=3 / weightb=1 / open_gop=0 / weightp=2 / keyint=250 / keyint_min=23 / scenecut=40 / intra_refresh=0 / rc_lookahead=60 / rc=crf / mbtree=1 / crf=19.0 / qcomp=0.60 / qpmin=0 / qpmax=69 / qpstep=4 / ip_ratio=1.40 / aq=3:0.90
  25. Default                                  : Yes
  26. Forced                                   : No
  27. Color range                              : Limited
  28. Matrix coefficients                      : BT.709

  29. Audio #1
  30. ID                                       : 2
  31. Format                                   : FLAC
  32. Format/Info                              : Free Lossless Audio Codec
  33. Codec ID                                 : A_FLAC
  34. Duration                                 : 1 h 19 min
  35. Bit rate mode                            : Variable
  36. Bit rate                                 : 622 kb/s
  37. Channel(s)                               : 1 channel
  38. Channel layout                           : C
  39. Sampling rate                            : 48.0 kHz
  40. Frame rate                               : 11.719 FPS (4096 SPF)
  41. Bit depth                                : 24 bits
  42. Compression mode                         : Lossless
  43. Stream size                              : 352 MiB (4%)
  44. Writing library                          : libFLAC 1.3.3 (UTC 2019-08-04)
  45. Language                                 : English
  46. Default                                  : Yes
  47. Forced                                   : No

  48. Audio #2
  49. ID                                       : 3
  50. Format                                   : AAC LC
  51. Format/Info                              : Advanced Audio Codec Low Complexity
  52. Codec ID                                 : A_AAC-2
  53. Duration                                 : 1 h 19 min
  54. Bit rate                                 : 84.4 kb/s
  55. Channel(s)                               : 2 channels
  56. Channel layout                           : L R
  57. Sampling rate                            : 48.0 kHz
  58. Frame rate                               : 46.875 FPS (1024 SPF)
  59. Compression mode                         : Lossy
  60. Delay relative to video                  : 20 ms
  61. Stream size                              : 47.7 MiB (1%)
  62. Title                                    : Commentary
  63. Language                                 : English
  64. Default                                  : No
  65. Forced                                   : No

  66. Text
  67. ID                                       : 4
  68. Format                                   : PGS
  69. Muxing mode                              : zlib
  70. Codec ID                                 : S_HDMV/PGS
  71. Codec ID/Info                            : Picture based subtitle format used on BDs/HD-DVDs
  72. Duration                                 : 1 h 17 min
  73. Bit rate                                 : 43.1 kb/s
  74. Count of elements                        : 2212
  75. Stream size                              : 23.8 MiB (0%)
  76. Title                                    : SDH
  77. Language                                 : English
  78. Default                                  : No
  79. Forced                                   : No

  80. Menu
  81. 00:00:00.000                             : Chapter 01
  82. 00:06:24.593                             : Chapter 02
  83. 00:17:40.643                             : Chapter 03
  84. 00:26:38.388                             : Chapter 04
  85. 00:34:50.130                             : Chapter 05
  86. 00:43:20.389                             : Chapter 06
  87. 00:47:24.175                             : Chapter 07
  88. 00:54:55.751                             : Chapter 08
  89. 01:02:25.700                             : Chapter 09
  90. 01:12:15.498                             : Chapter 10
  91. 01:19:04.823                             : Chapter 11
复制代码



蓝光高清网提示您 点击下方附件即可下载

碧血柔情 Kiss.the.Blood.Off.My.Hands.1948.1080p.BluRay.x264-ORBS 8.79GB

Kiss.the.Blood.Off.My.Hands.1948.1080p.BluRay.x264-ORBS.torrent ( 22.75 KB )

加入蓝光高清网VIP会员  无限制下载本站所有资源---点这里

资源下载、资源播放、字幕使用、无法下载等常见问题---点这里
回复

使用道具 举报

全部回复0 显示全部楼层

发表回复

您需要登录后才可以回帖 登录 | 立即注册

本版积分规则

开通会员 帮助中心 返回顶部 返回列表