本站已运行

蓝光高清网

搜索
开启左侧

[喜剧] 不可思议但真实 Incredible.But.True.2022.1080p.BluRay.x264-ORBS 10.87GB

蓝鸟 发表于 3 天前 | 显示全部楼层 |阅读模式


标  题 不可思议但真实
译  名 不可思议但千真万确(台) / Incredible But True
片  名 Incroyable mais vrai
年  代 2022
产  地 法国
类  别 喜剧
语  言 法语
上映日期 2022-02-11(柏林电影节) / 2022-06-15(法国)
IMDb评分 6.5/10 (1351人评价)
豆瓣评分 6.6/10 (109人评价)
片  长 74分钟
导  演 昆汀·杜皮约 Quentin Dupieux
编  剧 昆汀·杜皮约 Quentin Dupieux
演  员 阿兰·夏巴 Alain Chabat
       蕾雅·德吕盖 Léa Drucker
       阿娜伊斯·德穆斯蒂埃 Anaïs Demoustier
       伯努瓦·马吉梅尔 Benoît Magimel
       勒娜·拉佩 Lena Lapres
       伊莎贝尔·帕内蒂 Isabelle Pannetier

简  介

Alain and Marie moved to the suburb house of their dreams. But the real estate agent warned them : what is in the basement may well change their lives forever.


影片参数
  1. Video
  2. ID                                       : 1
  3. Format                                   : AVC
  4. Format/Info                              : Advanced Video Codec
  5. Format profile                           : [email protected]
  6. Format settings                          : CABAC / 4 Ref Frames
  7. Format settings, CABAC                   : Yes
  8. Format settings, Reference frames        : 4 frames
  9. Codec ID                                 : V_MPEG4/ISO/AVC
  10. Duration                                 : 1 h 13 min
  11. Bit rate                                 : 18.1 Mb/s
  12. Width                                    : 1 920 pixels
  13. Height                                   : 1 080 pixels
  14. Display aspect ratio                     : 16:9
  15. Frame rate mode                          : Constant
  16. Frame rate                               : 23.976 (24000/1001/189150) FPS
  17. Color space                              : YUV
  18. Chroma subsampling                       : 4:2:0
  19. Bit depth                                : 8 bits
  20. Scan type                                : Progressive
  21. Bits/(Pixel*Frame)                       : 0.363
  22. Stream size                              : 9.26 GiB (85%)
  23. Writing library                          : x264 core 164 r3095 baee400
  24. Encoding settings                        : cabac=1 / ref=4 / deblock=1:-3:-3 / analyse=0x3:0x133 / me=umh / subme=10 / psy=1 / psy_rd=1.20:0.00 / mixed_ref=1 / me_range=24 / chroma_me=1 / trellis=2 / 8x8dct=1 / cqm=0 / deadzone=21,11 / fast_pskip=0 / chroma_qp_offset=-2 / threads=24 / lookahead_threads=4 / sliced_threads=0 / nr=0 / decimate=0 / interlaced=0 / bluray_compat=0 / constrained_intra=0 / bframes=8 / b_pyramid=2 / b_adapt=2 / b_bias=0 / direct=3 / weightb=1 / open_gop=0 / weightp=2 / keyint=250 / keyint_min=23 / scenecut=40 / intra_refresh=0 / rc_lookahead=60 / rc=crf / mbtree=1 / crf=17.0 / qcomp=0.60 / qpmin=0 / qpmax=69 / qpstep=4 / ip_ratio=1.40 / aq=3:0.90
  25. Default                                  : Yes
  26. Forced                                   : No
  27. Color range                              : Limited
  28. Matrix coefficients                      : BT.709

  29. Audio
  30. ID                                       : 2
  31. Format                                   : DTS XLL
  32. Format/Info                              : Digital Theater Systems
  33. Commercial name                          : DTS-HD Master Audio
  34. Codec ID                                 : A_DTS
  35. Duration                                 : 1 h 13 min
  36. Bit rate mode                            : Variable
  37. Bit rate                                 : 3 112 kb/s
  38. Channel(s)                               : 6 channels
  39. Channel layout                           : C L R Ls Rs LFE
  40. Sampling rate                            : 48.0 kHz
  41. Frame rate                               : 93.750 FPS (512 SPF)
  42. Bit depth                                : 24 bits
  43. Compression mode                         : Lossless
  44. Stream size                              : 1.60 GiB (15%)
  45. Language                                 : French
  46. Default                                  : Yes
  47. Forced                                   : No

  48. Text #1
  49. ID                                       : 3
  50. Format                                   : UTF-8
  51. Codec ID                                 : S_TEXT/UTF8
  52. Codec ID/Info                            : UTF-8 Plain Text
  53. Duration                                 : 1 h 9 min
  54. Bit rate                                 : 52 b/s
  55. Count of elements                        : 772
  56. Stream size                              : 26.9 KiB (0%)
  57. Title                                    : English (Forced)
  58. Language                                 : English
  59. Default                                  : Yes
  60. Forced                                   : Yes

  61. Text #2
  62. ID                                       : 4
  63. Format                                   : PGS
  64. Muxing mode                              : zlib
  65. Codec ID                                 : S_HDMV/PGS
  66. Codec ID/Info                            : Picture based subtitle format used on BDs/HD-DVDs
  67. Duration                                 : 1 h 9 min
  68. Bit rate                                 : 28.4 kb/s
  69. Count of elements                        : 1544
  70. Stream size                              : 14.2 MiB (0%)
  71. Language                                 : English
  72. Default                                  : No
  73. Forced                                   : No

  74. Menu
  75. 00:00:00.000                             : Chapter 01
  76. 00:06:41.443                             : Chapter 02
  77. 00:12:58.695                             : Chapter 03
  78. 00:16:18.686                             : Chapter 04
  79. 00:27:53.171                             : Chapter 05
  80. 00:31:41.483                             : Chapter 06
  81. 00:35:32.339                             : Chapter 07
  82. 00:41:15.932                             : Chapter 08
  83. 00:52:05.789                             : Chapter 09
  84. 00:56:21.795                             : Chapter 10
  85. 01:02:12.520                             : Chapter 11
  86. 01:06:27.317                             : Chapter 12
  87. 01:13:27.320                             : Chapter 13
复制代码



蓝光高清网提示您 点击下方附件即可下载

不可思议但真实 Incredible.But.True.2022.1080p.BluRay.x264-ORBS 10.87GB

Incredible.But.True.2022.1080p.BluRay.x264-ORBS.torrent ( 14.33 KB )

加入蓝光高清网VIP会员  无限制下载本站所有资源---点这里

资源下载、资源播放、字幕使用、无法下载等常见问题---点这里
回复

使用道具 举报

全部回复0 显示全部楼层

发表回复

您需要登录后才可以回帖 登录 | 立即注册

本版积分规则

开通会员 帮助中心 返回顶部 返回列表