本站已运行

蓝光高清网

搜索
开启左侧

[爱情] 商场魅影 Phantom.of.the.Mall.Erics.Revenge.1989.EXTENDED.1080p.BluRay.x264-GAZER 12.73GB

蓝鸟 发表于 3 天前 | 显示全部楼层 |阅读模式


标  题 商场魅影
片  名 Phantom of the Mall
年  代 1989
产  地 美国
类  别 爱情 / 恐怖
语  言 英语
上映日期 1990-09-27
IMDb评分 5.2/10 (1433人评价)
片  长 91 分钟
导  演 Steve Ray Steve Ray
编  剧 Scott Schneid Scott Schneid
演  员 布琳克·史蒂文斯 Brinke Stevens
       保利·肖尔 Pauly Shore
       摩根·费尔切尔德 Morgan Fairchild
       Kari Whitman Kari Whitman
       罗伯·艾斯特斯 Rob Estes
       乔纳森·戈德史密斯 Jonathan Goldsmith
       肯·佛瑞 Ken Foree
       Tom Fridley Tom Fridley
       凯莉·拉瑟福德 Kelly Rutherford
       Derek Rydall Derek Rydall
       Thomas Fries Thomas Fries
       Stacy Widelitz Stacy Widelitz
       林恩·K·伊根 Lynne K. Eagan
       马修·W.蒙格儿 Matthew W. Mungle
       Roseanne McIlvane Roseanne McIlvane


影片参数
  1. Video
  2. ID                                       : 1
  3. Format                                   : AVC
  4. Format/Info                              : Advanced Video Codec
  5. Format profile                           : [email protected]
  6. Format settings                          : CABAC / 4 Ref Frames
  7. Format settings, CABAC                   : Yes
  8. Format settings, Reference frames        : 4 frames
  9. Codec ID                                 : V_MPEG4/ISO/AVC
  10. Duration                                 : 1 h 36 min
  11. Bit rate                                 : 17.9 Mb/s
  12. Width                                    : 1 920 pixels
  13. Height                                   : 1 038 pixels
  14. Display aspect ratio                     : 1.85:1
  15. Frame rate mode                          : Constant
  16. Frame rate                               : 23.976 (24000/1001/189150) FPS
  17. Color space                              : YUV
  18. Chroma subsampling                       : 4:2:0
  19. Bit depth                                : 8 bits
  20. Scan type                                : Progressive
  21. Bits/(Pixel*Frame)                       : 0.374
  22. Stream size                              : 12.0 GiB (94%)
  23. Writing library                          : x264 core 164 r3095 baee400
  24. Encoding settings                        : cabac=1 / ref=4 / deblock=1:-3:-3 / analyse=0x3:0x133 / me=umh / subme=10 / psy=1 / psy_rd=1.20:0.00 / mixed_ref=1 / me_range=24 / chroma_me=1 / trellis=2 / 8x8dct=1 / cqm=0 / deadzone=21,11 / fast_pskip=0 / chroma_qp_offset=-2 / threads=24 / lookahead_threads=4 / sliced_threads=0 / nr=0 / decimate=0 / interlaced=0 / bluray_compat=0 / constrained_intra=0 / bframes=8 / b_pyramid=2 / b_adapt=2 / b_bias=0 / direct=3 / weightb=1 / open_gop=0 / weightp=2 / keyint=250 / keyint_min=23 / scenecut=40 / intra_refresh=0 / rc_lookahead=60 / rc=crf / mbtree=1 / crf=19.5 / qcomp=0.60 / qpmin=0 / qpmax=69 / qpstep=4 / ip_ratio=1.40 / aq=3:0.90
  25. Default                                  : Yes
  26. Forced                                   : No
  27. Color range                              : Limited
  28. Matrix coefficients                      : BT.709

  29. Audio
  30. ID                                       : 2
  31. Format                                   : FLAC
  32. Format/Info                              : Free Lossless Audio Codec
  33. Codec ID                                 : A_FLAC
  34. Duration                                 : 1 h 36 min
  35. Bit rate mode                            : Variable
  36. Bit rate                                 : 1 039 kb/s
  37. Channel(s)                               : 2 channels
  38. Channel layout                           : L R
  39. Sampling rate                            : 48.0 kHz
  40. Frame rate                               : 11.719 FPS (4096 SPF)
  41. Bit depth                                : 24 bits
  42. Compression mode                         : Lossless
  43. Stream size                              : 716 MiB (5%)
  44. Writing library                          : libFLAC 1.3.3 (UTC 2019-08-04)
  45. Language                                 : English
  46. Default                                  : Yes
  47. Forced                                   : No

  48. Text
  49. ID                                       : 3
  50. Format                                   : PGS
  51. Muxing mode                              : zlib
  52. Codec ID                                 : S_HDMV/PGS
  53. Codec ID/Info                            : Picture based subtitle format used on BDs/HD-DVDs
  54. Duration                                 : 1 h 35 min
  55. Bit rate                                 : 25.6 kb/s
  56. Count of elements                        : 2054
  57. Stream size                              : 17.6 MiB (0%)
  58. Title                                    : SDH
  59. Language                                 : English
  60. Default                                  : No
  61. Forced                                   : No

  62. Menu
  63. 00:00:00.000                             : Chapter 01
  64. 00:07:35.580                             : Chapter 02
  65. 00:16:14.140                             : Chapter 03
  66. 00:23:48.093                             : Chapter 04
  67. 00:31:28.637                             : Chapter 05
  68. 00:40:14.162                             : Chapter 06
  69. 00:48:08.010                             : Chapter 07
  70. 00:58:26.253                             : Chapter 08
  71. 01:06:53.885                             : Chapter 09
  72. 01:12:52.952                             : Chapter 10
  73. 01:21:05.444                             : Chapter 11
  74. 01:28:18.668                             : Chapter 12
  75. 01:36:17.480                             : Chapter 13
复制代码



蓝光高清网提示您 点击下方附件即可下载

商场魅影 Phantom.of.the.Mall.Erics.Revenge.1989.EXTENDED.1080p.BluRay.x264-GAZER 12.73GB

Phantom.of.the.Mall.Erics.Revenge.1989.EXTENDED.1080p.BluRay.x264-GAZER.torrent ( 16.72 KB )

加入蓝光高清网VIP会员  无限制下载本站所有资源---点这里

资源下载、资源播放、字幕使用、无法下载等常见问题---点这里
回复

使用道具 举报

全部回复0 显示全部楼层

发表回复

您需要登录后才可以回帖 登录 | 立即注册

本版积分规则

开通会员 帮助中心 返回顶部 返回列表