本站已运行

蓝光高清网

搜索
开启左侧

[喜剧] 哥儿们 Bros.2022.1080p.BluRay.x264-PiGNUS 13.40GB

蓝鸟 发表于 3 天前 | 显示全部楼层 |阅读模式


标  题 哥儿们
译  名 兄弟
片  名 Bros
年  代 2022
产  地 美国
类  别 喜剧 / 爱情
语  言 英语
上映日期 2022-09-10(多伦多电影节) / 2022-09-30(美国)
IMDb评分 6/10 (5276人评价)
片  长 115分钟
导  演 尼古拉斯·斯托勒 Nicholas Stoller
编  剧 比利·艾希纳 Billy Eichner
       尼古拉斯·斯托勒 Nicholas Stoller
演  员 比利·艾希纳 Billy Eichner
       卢克·马可法莱恩 Luke Macfarlane
       盖伊·布兰纳姆 Guy Branum
       密斯·劳伦斯 Miss Lawrence
       茨·麦迪逊 Ts Madison
       多特-玛丽·琼斯 Dot-Marie Jones
       吉姆·拉什 Jim Rash
       爱娃林德丽 Eve Lindley
       莫妮卡·雷蒙德 Monica Raymund
       古列雷莫·迪亚兹 Guillermo Díaz
       杰·罗德里格斯 Jai Rodriguez
       阿曼达·比尔斯 Amanda Bearse
       黛博拉·梅辛 Debra Messing
       彼得·Y·金 Peter Y. Kim
       贾斯汀·科文顿 Justin Covington
       瑞安·福塞特 Ryan Faucett
       哈维·费斯特恩 Harvey Fierstein
       杨伯文 Bowen Yang
       乔治·德沃尔斯基 George Dvorsky
       布罗克·恰尔列利 Brock Ciarlelli
       基南·汤普森 Kenan Thompson
       艾米·舒默 Amy Schumer
       埃弗里特·昆顿 Everett Quinton
       克里斯汀·肯诺恩斯 Kristin Chenoweth
       香农·帕特里夏·奥尼尔 Shannon Patricia O''Neill
       马修·威尔卡斯 Matthew Wilkas
       贝尼托·斯金纳 Benito Skinner
       Joanne Lamstein Joanne Lamstein
       Chris Carver Chris Carver
       本·斯蒂勒 Ben Stiller
       柯克·凯利 Kirk Kelly
       汤姆·布罗克尔 Tom Broecker

简  介

今年秋天,环球影业将骄傲地推出首部好莱坞主要电影公司制作,关于两名男同志,也许、可能、大概将会坠入爱河的爱情喜剧片。也许吧。不管怎样,他们都会非常忙碌。                                    
                                喜剧天才比利·艾希纳、杰出的卖座电影导演尼古拉斯·斯托勒以及金牌喜剧导演/制片贾德·阿帕图共同打造《哥儿们》一片,这是一部在这个疯狂世界关于性、爱情及浪漫情怀,极具巧思、心醉神迷和暖心动人的喜剧片。


影片参数
  1. Video
  2. ID                                       : 1
  3. Format                                   : AVC
  4. Format/Info                              : Advanced Video Codec
  5. Format profile                           : [email protected]
  6. Format settings                          : CABAC / 5 Ref Frames
  7. Format settings, CABAC                   : Yes
  8. Format settings, Reference frames        : 5 frames
  9. Codec ID                                 : V_MPEG4/ISO/AVC
  10. Duration                                 : 1 h 55 min
  11. Bit rate                                 : 13.1 Mb/s
  12. Width                                    : 1 920 pixels
  13. Height                                   : 804 pixels
  14. Display aspect ratio                     : 2.40:1
  15. Frame rate mode                          : Constant
  16. Frame rate                               : 23.976 (24000/1001/189150) FPS
  17. Color space                              : YUV
  18. Chroma subsampling                       : 4:2:0
  19. Bit depth                                : 8 bits
  20. Scan type                                : Progressive
  21. Bits/(Pixel*Frame)                       : 0.354
  22. Stream size                              : 10.6 GiB (79%)
  23. Writing library                          : x264 core 164 r3101 b093bbe
  24. Encoding settings                        : cabac=1 / ref=5 / deblock=1:-3:-3 / analyse=0x3:0x133 / me=umh / subme=9 / psy=1 / psy_rd=1.00:0.00 / mixed_ref=1 / me_range=16 / chroma_me=1 / trellis=2 / 8x8dct=1 / cqm=0 / deadzone=21,11 / fast_pskip=1 / chroma_qp_offset=-2 / threads=25 / lookahead_threads=2 / sliced_threads=0 / nr=0 / decimate=1 / interlaced=0 / bluray_compat=0 / constrained_intra=0 / bframes=3 / b_pyramid=2 / b_adapt=2 / b_bias=0 / direct=3 / weightb=1 / open_gop=0 / weightp=2 / keyint=250 / keyint_min=23 / scenecut=40 / intra_refresh=0 / rc_lookahead=60 / rc=crf / mbtree=1 / crf=15.5 / qcomp=0.60 / qpmin=0 / qpmax=69 / qpstep=4 / ip_ratio=1.40 / aq=1:1.00
  25. Default                                  : Yes
  26. Forced                                   : No

  27. Audio
  28. ID                                       : 2
  29. Format                                   : DTS XLL
  30. Format/Info                              : Digital Theater Systems
  31. Commercial name                          : DTS-HD Master Audio
  32. Codec ID                                 : A_DTS
  33. Duration                                 : 1 h 55 min
  34. Bit rate mode                            : Variable
  35. Bit rate                                 : 3 429 kb/s
  36. Channel(s)                               : 6 channels
  37. Channel layout                           : C L R Ls Rs LFE
  38. Sampling rate                            : 48.0 kHz
  39. Frame rate                               : 93.750 FPS (512 SPF)
  40. Bit depth                                : 24 bits
  41. Compression mode                         : Lossless
  42. Stream size                              : 2.77 GiB (21%)
  43. Language                                 : English
  44. Default                                  : Yes
  45. Forced                                   : No

  46. Text #1
  47. ID                                       : 3
  48. Format                                   : PGS
  49. Muxing mode                              : zlib
  50. Codec ID                                 : S_HDMV/PGS
  51. Codec ID/Info                            : Picture based subtitle format used on BDs/HD-DVDs
  52. Duration                                 : 1 h 50 min
  53. Bit rate                                 : 68.0 kb/s
  54. Count of elements                        : 4488
  55. Stream size                              : 53.5 MiB (0%)
  56. Title                                    : English SDH
  57. Language                                 : English
  58. Default                                  : No
  59. Forced                                   : No

  60. Text #2
  61. ID                                       : 4
  62. Format                                   : PGS
  63. Muxing mode                              : zlib
  64. Codec ID                                 : S_HDMV/PGS
  65. Codec ID/Info                            : Picture based subtitle format used on BDs/HD-DVDs
  66. Duration                                 : 1 h 54 min
  67. Bit rate                                 : 52.6 kb/s
  68. Count of elements                        : 4148
  69. Stream size                              : 43.2 MiB (0%)
  70. Title                                    : Spanish
  71. Language                                 : Spanish
  72. Default                                  : No
  73. Forced                                   : No

  74. Text #3
  75. ID                                       : 5
  76. Format                                   : PGS
  77. Muxing mode                              : zlib
  78. Codec ID                                 : S_HDMV/PGS
  79. Codec ID/Info                            : Picture based subtitle format used on BDs/HD-DVDs
  80. Duration                                 : 1 h 54 min
  81. Bit rate                                 : 56.8 kb/s
  82. Count of elements                        : 4236
  83. Stream size                              : 46.7 MiB (0%)
  84. Title                                    : French
  85. Language                                 : French
  86. Default                                  : No
  87. Forced                                   : No

  88. Text #4
  89. ID                                       : 6
  90. Format                                   : PGS
  91. Muxing mode                              : zlib
  92. Codec ID                                 : S_HDMV/PGS
  93. Codec ID/Info                            : Picture based subtitle format used on BDs/HD-DVDs
  94. Duration                                 : 1 h 54 min
  95. Bit rate                                 : 148 b/s
  96. Count of elements                        : 10
  97. Stream size                              : 124 KiB (0%)
  98. Title                                    : Spanish
  99. Language                                 : Spanish
  100. Default                                  : No
  101. Forced                                   : No

  102. Text #5
  103. ID                                       : 7
  104. Format                                   : PGS
  105. Muxing mode                              : zlib
  106. Codec ID                                 : S_HDMV/PGS
  107. Codec ID/Info                            : Picture based subtitle format used on BDs/HD-DVDs
  108. Duration                                 : 1 h 54 min
  109. Bit rate                                 : 1 586 b/s
  110. Count of elements                        : 122
  111. Stream size                              : 1.30 MiB (0%)
  112. Title                                    : French
  113. Language                                 : French
  114. Default                                  : No
  115. Forced                                   : No

  116. Menu
  117. 00:00:00.000                             : en:Chapter 01
  118. 00:07:44.589                             : en:Chapter 02
  119. 00:10:15.573                             : en:Chapter 03
  120. 00:18:38.993                             : en:Chapter 04
  121. 00:23:41.837                             : en:Chapter 05
  122. 00:30:15.689                             : en:Chapter 06
  123. 00:37:12.730                             : en:Chapter 07
  124. 00:42:58.659                             : en:Chapter 08
  125. 00:46:56.814                             : en:Chapter 09
  126. 00:52:32.983                             : en:Chapter 10
  127. 00:59:26.772                             : en:Chapter 11
  128. 01:07:01.142                             : en:Chapter 12
  129. 01:12:08.699                             : en:Chapter 13
  130. 01:19:23.509                             : en:Chapter 14
  131. 01:22:13.303                             : en:Chapter 15
  132. 01:26:55.210                             : en:Chapter 16
  133. 01:31:06.503                             : en:Chapter 17
  134. 01:36:25.446                             : en:Chapter 18
  135. 01:42:55.628                             : en:Chapter 19
  136. 01:50:30.541                             : en:Chapter 20
  137. 01:55:28.672                             : en:Chapter 21
复制代码



蓝光高清网提示您 点击下方附件即可下载

哥儿们 Bros.2022.1080p.BluRay.x264-PiGNUS 13.40GB

Bros.2022.1080p.BluRay.x264-PiGNUS.torrent ( 17.45 KB )

加入蓝光高清网VIP会员  无限制下载本站所有资源---点这里

资源下载、资源播放、字幕使用、无法下载等常见问题---点这里
回复

使用道具 举报

全部回复0 显示全部楼层

发表回复

您需要登录后才可以回帖 登录 | 立即注册

本版积分规则

开通会员 帮助中心 返回顶部 返回列表