本站已运行

蓝光高清网

搜索
开启左侧

[剧情] 野蛮生长 Wildhood.2021.1080p.BluRay.x264-SCARE 11.32GB

蓝鸟 发表于 3 天前 | 显示全部楼层 |阅读模式


标  题 野蛮生长
片  名 Wildhood
年  代 2021
产  地 加拿大
类  别 剧情
语  言 英语
上映日期 2021-09(加拿大)
IMDb评分 6.6/10 (162人评价)
片  长 99分钟
导  演 
演  员 乔尔·托马斯·海因斯 Joel Thomas Hynes
       麦克尔·格雷耶斯 Michael Greyeyes
       Jordan Poole   Jordan Poole
       Callum Dunphy Callum Dunphy
       菲利普·莱维茨基 Phillip Lewitski
       约书亚·奥吉克 Joshua Odjick
       贝利·莫恩 Bailey Maughan

简  介

A rebellious two-spirit teenager runs away from home to find his birth mother and reclaim his Mi''kmaw heritage.


影片参数
  1. Video
  2. ID                                       : 1
  3. Format                                   : AVC
  4. Format/Info                              : Advanced Video Codec
  5. Format profile                           : [email protected]
  6. Format settings                          : CABAC / 4 Ref Frames
  7. Format settings, CABAC                   : Yes
  8. Format settings, Reference frames        : 4 frames
  9. Codec ID                                 : V_MPEG4/ISO/AVC
  10. Duration                                 : 1 h 47 min
  11. Bit rate                                 : 13.1 Mb/s
  12. Width                                    : 1 920 pixels
  13. Height                                   : 960 pixels
  14. Display aspect ratio                     : 2.000
  15. Frame rate mode                          : Constant
  16. Frame rate                               : 24.000 FPS
  17. Color space                              : YUV
  18. Chroma subsampling                       : 4:2:0
  19. Bit depth                                : 8 bits
  20. Scan type                                : Progressive
  21. Bits/(Pixel*Frame)                       : 0.296
  22. Stream size                              : 9.86 GiB (87%)
  23. Writing library                          : x264 core 164 r3095 baee400
  24. Encoding settings                        : cabac=1 / ref=4 / deblock=1:-3:-3 / analyse=0x3:0x133 / me=umh / subme=10 / psy=1 / psy_rd=1.20:0.00 / mixed_ref=1 / me_range=24 / chroma_me=1 / trellis=2 / 8x8dct=1 / cqm=0 / deadzone=21,11 / fast_pskip=0 / chroma_qp_offset=-2 / threads=24 / lookahead_threads=4 / sliced_threads=0 / nr=0 / decimate=0 / interlaced=0 / bluray_compat=0 / constrained_intra=0 / bframes=8 / b_pyramid=2 / b_adapt=2 / b_bias=0 / direct=3 / weightb=1 / open_gop=0 / weightp=2 / keyint=250 / keyint_min=24 / scenecut=40 / intra_refresh=0 / rc_lookahead=60 / rc=crf / mbtree=1 / crf=14.0 / qcomp=0.60 / qpmin=0 / qpmax=69 / qpstep=4 / ip_ratio=1.40 / aq=3:0.90
  25. Default                                  : Yes
  26. Forced                                   : No
  27. Color range                              : Limited
  28. Matrix coefficients                      : BT.709

  29. Audio
  30. ID                                       : 2
  31. Format                                   : DTS XLL
  32. Format/Info                              : Digital Theater Systems
  33. Commercial name                          : DTS-HD Master Audio
  34. Codec ID                                 : A_DTS
  35. Duration                                 : 1 h 47 min
  36. Bit rate mode                            : Variable
  37. Bit rate                                 : 1 915 kb/s
  38. Channel(s)                               : 6 channels
  39. Channel layout                           : C L R Ls Rs LFE
  40. Sampling rate                            : 48.0 kHz
  41. Frame rate                               : 93.750 FPS (512 SPF)
  42. Bit depth                                : 16 bits
  43. Compression mode                         : Lossless
  44. Stream size                              : 1.44 GiB (13%)
  45. Language                                 : English
  46. Default                                  : Yes
  47. Forced                                   : No

  48. Text #1
  49. ID                                       : 3
  50. Format                                   : UTF-8
  51. Codec ID                                 : S_TEXT/UTF8
  52. Codec ID/Info                            : UTF-8 Plain Text
  53. Duration                                 : 41 min 40 s
  54. Bit rate                                 : 2 b/s
  55. Count of elements                        : 38
  56. Stream size                              : 881 Bytes (0%)
  57. Title                                    : English (Forced)
  58. Language                                 : English
  59. Default                                  : Yes
  60. Forced                                   : Yes

  61. Text #2
  62. ID                                       : 4
  63. Format                                   : PGS
  64. Muxing mode                              : zlib
  65. Codec ID                                 : S_HDMV/PGS
  66. Codec ID/Info                            : Picture based subtitle format used on BDs/HD-DVDs
  67. Duration                                 : 1 h 46 min
  68. Bit rate                                 : 19.1 kb/s
  69. Count of elements                        : 1888
  70. Stream size                              : 14.6 MiB (0%)
  71. Title                                    : SDH
  72. Language                                 : English
  73. Default                                  : No
  74. Forced                                   : No

  75. Text #3
  76. ID                                       : 5
  77. Format                                   : PGS
  78. Muxing mode                              : zlib
  79. Codec ID                                 : S_HDMV/PGS
  80. Codec ID/Info                            : Picture based subtitle format used on BDs/HD-DVDs
  81. Duration                                 : 41 min 40 s
  82. Bit rate                                 : 1 661 b/s
  83. Count of elements                        : 72
  84. Stream size                              : 507 KiB (0%)
  85. Language                                 : English
  86. Default                                  : No
  87. Forced                                   : No

  88. Menu
  89. 00:00:00.000                             : Chapter 01
  90. 00:17:01.500                             : Chapter 02
  91. 00:31:18.208                             : Chapter 03
  92. 00:43:09.417                             : Chapter 04
  93. 00:52:26.542                             : Chapter 05
  94. 01:06:53.792                             : Chapter 06
  95. 01:22:52.667                             : Chapter 07
  96. 01:42:01.167                             : Chapter 08
  97. 01:47:57.000                             : Chapter 09
复制代码



蓝光高清网提示您 点击下方附件即可下载

野蛮生长 Wildhood.2021.1080p.BluRay.x264-SCARE 11.32GB

Wildhood.2021.1080p.BluRay.x264-SCARE.torrent ( 14.86 KB )

加入蓝光高清网VIP会员  无限制下载本站所有资源---点这里

资源下载、资源播放、字幕使用、无法下载等常见问题---点这里
回复

使用道具 举报

全部回复0 显示全部楼层

发表回复

您需要登录后才可以回帖 登录 | 立即注册

本版积分规则

开通会员 帮助中心 返回顶部 返回列表