本站已运行

蓝光高清网

搜索
开启左侧

[恐怖] 了解恐惧 Know.Fear.2021.1080p.BluRay.x264.DD5.1-HANDJOB 6.16GB

蓝鸟 发表于 3 天前 | 显示全部楼层 |阅读模式


标  题 了解恐惧
片  名 Know Fear
年  代 2021
产  地 美国
类  别 恐怖
语  言 英语
上映日期 2021-03-12(美国)
IMDb评分 4.1/10 (550人评价)
演  员 艾米·卡尔森 Amy Carlson
       大卫·阿伦·伯施理 David Alan Basche
       马洛里·贝克特尔 Mallory Bechtel
标  签 恶魔驱魔

简  介

A family discovers an occult book that unleashes a demonic force.


影片参数
  1. Video
  2. ID                                       : 1
  3. Format                                   : AVC
  4. Format/Info                              : Advanced Video Codec
  5. Format profile                           : [email protected]
  6. Format settings                          : CABAC / 5 Ref Frames
  7. Format settings, CABAC                   : Yes
  8. Format settings, Reference frames        : 5 frames
  9. Codec ID                                 : V_MPEG4/ISO/AVC
  10. Duration                                 : 1 h 18 min
  11. Bit rate                                 : 10.6 Mb/s
  12. Width                                    : 1 920 pixels
  13. Height                                   : 762 pixels
  14. Display aspect ratio                     : 2.520
  15. Frame rate mode                          : Constant
  16. Frame rate                               : 23.976 (24000/1001/189150) FPS
  17. Color space                              : YUV
  18. Chroma subsampling                       : 4:2:0
  19. Bit depth                                : 8 bits
  20. Scan type                                : Progressive
  21. Bits/(Pixel*Frame)                       : 0.304
  22. Stream size                              : 5.81 GiB (94%)
  23. Writing library                          : x264 core 164 r3065 ae03d92
  24. Encoding settings                        : cabac=1 / ref=5 / deblock=1:-3:-3 / analyse=0x3:0x133 / me=umh / subme=10 / psy=1 / psy_rd=1.00:0.00 / mixed_ref=1 / me_range=32 / chroma_me=1 / trellis=2 / 8x8dct=1 / cqm=0 / deadzone=21,11 / fast_pskip=0 / chroma_qp_offset=-2 / threads=24 / lookahead_threads=5 / sliced_threads=0 / nr=0 / decimate=0 / interlaced=0 / bluray_compat=0 / constrained_intra=0 / bframes=16 / b_pyramid=2 / b_adapt=2 / b_bias=0 / direct=3 / weightb=1 / open_gop=0 / weightp=2 / keyint=240 / keyint_min=24 / scenecut=40 / intra_refresh=0 / rc_lookahead=60 / rc=crf / mbtree=0 / crf=15.2 / qcomp=0.60 / qpmin=0 / qpmax=69 / qpstep=4 / vbv_maxrate=62500 / vbv_bufsize=78125 / crf_max=0.0 / nal_hrd=none / filler=0 / ip_ratio=1.40 / pb_ratio=1.30 / aq=2:1.00
  25. Default                                  : Yes
  26. Forced                                   : No
  27. Color range                              : Limited
  28. Color primaries                          : BT.709
  29. Transfer characteristics                 : BT.709
  30. Matrix coefficients                      : BT.709
  31. Audio
  32. ID                                       : 2
  33. Format                                   : AC-3
  34. Format/Info                              : Audio Coding 3
  35. Commercial name                          : Dolby Digital
  36. Codec ID                                 : A_AC3
  37. Duration                                 : 1 h 18 min
  38. Bit rate mode                            : Constant
  39. Bit rate                                 : 640 kb/s
  40. Channel(s)                               : 6 channels
  41. Channel layout                           : L R C LFE Ls Rs
  42. Sampling rate                            : 48.0 kHz
  43. Frame rate                               : 31.250 FPS (1536 SPF)
  44. Compression mode                         : Lossy
  45. Stream size                              : 357 MiB (6%)
  46. Language                                 : English
  47. Service kind                             : Complete Main
  48. Default                                  : Yes
  49. Forced                                   : No
  50. Menu
  51. 00:00:00.000                             : en:Chapter 01
  52. 00:10:40.640                             : en:Chapter 02
  53. 00:20:17.216                             : en:Chapter 03
  54. 00:30:33.832                             : en:Chapter 04
  55. 00:39:58.396                             : en:Chapter 05
  56. 00:48:55.933                             : en:Chapter 06
  57. 00:58:19.496                             : en:Chapter 07
  58. 01:05:30.927                             : en:Chapter 08
  59. 01:12:49.365                             : en:Chapter 09
复制代码



蓝光高清网提示您 点击下方附件即可下载

了解恐惧 Know.Fear.2021.1080p.BluRay.x264.DD5.1-HANDJOB 6.16GB

Know.Fear.2021.1080p.BluRay.x264.DD5.1-HANDJOB.torrent ( 15.99 KB )

加入蓝光高清网VIP会员  无限制下载本站所有资源---点这里

资源下载、资源播放、字幕使用、无法下载等常见问题---点这里
回复

使用道具 举报

全部回复0 显示全部楼层

发表回复

您需要登录后才可以回帖 登录 | 立即注册

本版积分规则

开通会员 帮助中心 返回顶部 返回列表