本站已运行

蓝光高清网

搜索
开启左侧

[恐怖] 魔鬼泰坦尼克 Titanic.666.2022.1080p.BluRay.x264-WDC 10.16GB

蓝鸟 发表于 3 天前 | 显示全部楼层 |阅读模式


标  题 魔鬼泰坦尼克
译  名 泰坦尼克666号
片  名 Titanic 666
年  代 2022
产  地 美国
类  别 恐怖
语  言 英语
上映日期 2022-04-15(美国电视台)
IMDb评分 4.8/10 (1309人评价)
片  长 91分钟
演  员 凯沙·夏普 Keesha Sharp
       莉蒂亚·赫斯特 Lydia Hearst

简  介

One hundred and ten years after its namesake’s fateful journey, the Titanic III’s maiden voyage will land at the original site of the wreck. Although a faithful replica of the original, this mammoth cruise ship is built with the most advanced technology, ensuring that it has no chance of sinking.                                       
                                    However, when the Titanic III arrives at the tragic site, strange events begin to ...


影片参数
  1. Video
  2. ID                                       : 1
  3. Format                                   : AVC
  4. Format/Info                              : Advanced Video Codec
  5. Format profile                           : [email protected]
  6. Format settings                          : CABAC / 5 Ref Frames
  7. Format settings, CABAC                   : Yes
  8. Format settings, Reference frames        : 5 frames
  9. Codec ID                                 : V_MPEG4/ISO/AVC
  10. Duration                                 : 1 h 30 min
  11. Bit rate                                 : 14.1 Mb/s
  12. Width                                    : 1 920 pixels
  13. Height                                   : 804 pixels
  14. Display aspect ratio                     : 2.40:1
  15. Frame rate mode                          : Constant
  16. Frame rate                               : 23.976 (24000/1001/189150) FPS
  17. Color space                              : YUV
  18. Chroma subsampling                       : 4:2:0
  19. Bit depth                                : 8 bits
  20. Scan type                                : Progressive
  21. Bits/(Pixel*Frame)                       : 0.380
  22. Stream size                              : 8.92 GiB (88%)
  23. Writing library                          : x264 core 164 r3101 b093bbe
  24. Encoding settings                        : cabac=1 / ref=5 / deblock=1:-3:-3 / analyse=0x3:0x133 / me=umh / subme=9 / psy=1 / psy_rd=1.00:0.00 / mixed_ref=1 / me_range=16 / chroma_me=1 / trellis=2 / 8x8dct=1 / cqm=0 / deadzone=21,11 / fast_pskip=0 / chroma_qp_offset=-2 / threads=24 / lookahead_threads=2 / sliced_threads=0 / nr=0 / decimate=1 / interlaced=0 / bluray_compat=0 / constrained_intra=0 / bframes=3 / b_pyramid=2 / b_adapt=2 / b_bias=0 / direct=3 / weightb=1 / open_gop=0 / weightp=2 / keyint=250 / keyint_min=23 / scenecut=40 / intra_refresh=0 / rc_lookahead=60 / rc=crf / mbtree=1 / crf=17.0 / qcomp=0.60 / qpmin=0 / qpmax=69 / qpstep=4 / ip_ratio=1.40 / aq=3:1.00
  25. Default                                  : Yes
  26. Forced                                   : No
  27. Color range                              : Limited
  28. Matrix coefficients                      : BT.709
  29. Audio
  30. ID                                       : 2
  31. Format                                   : DTS XLL
  32. Format/Info                              : Digital Theater Systems
  33. Commercial name                          : DTS-HD Master Audio
  34. Codec ID                                 : A_DTS
  35. Duration                                 : 1 h 30 min
  36. Bit rate mode                            : Variable
  37. Bit rate                                 : 1 938 kb/s
  38. Channel(s)                               : 6 channels
  39. Channel layout                           : C L R Ls Rs LFE
  40. Sampling rate                            : 48.0 kHz
  41. Frame rate                               : 93.750 FPS (512 SPF)
  42. Bit depth                                : 16 bits
  43. Compression mode                         : Lossless
  44. Stream size                              : 1.23 GiB (12%)
  45. Language                                 : English
  46. Default                                  : Yes
  47. Forced                                   : No
  48. Menu
  49. 00:00:00.000                             : 00:00:00.000
  50. 00:07:52.013                             : 00:07:52.013
  51. 00:19:08.731                             : 00:19:08.731
  52. 00:30:46.428                             : 00:30:46.428
  53. 00:43:17.595                             : 00:43:17.595
  54. 00:53:03.430                             : 00:53:03.430
  55. 01:08:32.191                             : 01:08:32.191
  56. 01:14:33.010                             : 01:14:33.010
复制代码



蓝光高清网提示您 点击下方附件即可下载

魔鬼泰坦尼克 Titanic.666.2022.1080p.BluRay.x264-WDC 10.16GB

Titanic.666.2022.1080p.BluRay.x264-WDC.torrent ( 13.33 KB )

加入蓝光高清网VIP会员  无限制下载本站所有资源---点这里

资源下载、资源播放、字幕使用、无法下载等常见问题---点这里
回复

使用道具 举报

全部回复0 显示全部楼层

发表回复

您需要登录后才可以回帖 登录 | 立即注册

本版积分规则

开通会员 帮助中心 返回顶部 返回列表