本站已运行

蓝光高清网

搜索
开启左侧

[喜剧] 最后一次接触 Happy.Easter.1984.FRENCH.1080p.BluRay.x264.DTS-NOGRP 6.56GB

蓝鸟 发表于 3 天前 | 显示全部楼层 |阅读模式


标  题 最后一次接触
译  名 复活节快乐
片  名 Joyeuses Pâques
年  代 1984
产  地 法国
类  别 喜剧
语  言 法语
上映日期 1984-10-24
IMDb评分 6.2/10 (2644人评价)
豆瓣评分 6.3/10 (206人评价)
片  长 98 分钟
导  演 Robert Kechichian Robert Kechichian
编  剧 乔治·洛特内 Georges Lautner
       让·普瓦雷 Jean Poiret
演  员 苏菲·玛索 Sophie Marceau
       Muriel Dubrule Muriel Dubrule
       菲利普·萨德 Philippe Sarde
       Dominique André Dominique André

简  介

情场老手想勾引少女,却引发了一些列笑话……


影片参数
  1. Video
  2. ID                                       : 1
  3. Format                                   : AVC
  4. Format/Info                              : Advanced Video Codec
  5. Format profile                           : [email protected]
  6. Format settings                          : CABAC / 5 Ref Frames
  7. Format settings, CABAC                   : Yes
  8. Format settings, Reference frames        : 5 frames
  9. Codec ID                                 : V_MPEG4/ISO/AVC
  10. Duration                                 : 1 h 38 min
  11. Bit rate                                 : 8 780 kb/s
  12. Width                                    : 1 920 pixels
  13. Height                                   : 816 pixels
  14. Display aspect ratio                     : 2.35:1
  15. Frame rate mode                          : Constant
  16. Frame rate                               : 23.976 (24000/1001/189150) FPS
  17. Color space                              : YUV
  18. Chroma subsampling                       : 4:2:0
  19. Bit depth                                : 8 bits
  20. Scan type                                : Progressive
  21. Bits/(Pixel*Frame)                       : 0.234
  22. Stream size                              : 6.03 GiB (92%)
  23. Writing library                          : x264 core 159
  24. Encoding settings                        : cabac=1 / ref=5 / deblock=1:-3:-3 / analyse=0x3:0x113 / me=umh / subme=8 / psy=1 / psy_rd=1.00:0.00 / mixed_ref=1 / me_range=24 / chroma_me=1 / trellis=1 / 8x8dct=1 / cqm=0 / deadzone=21,11 / fast_pskip=1 / chroma_qp_offset=-2 / threads=12 / lookahead_threads=2 / sliced_threads=0 / nr=0 / decimate=1 / interlaced=0 / bluray_compat=0 / constrained_intra=0 / bframes=3 / b_pyramid=2 / b_adapt=1 / b_bias=0 / direct=3 / weightb=1 / open_gop=0 / weightp=2 / keyint=250 / keyint_min=23 / scenecut=40 / intra_refresh=0 / rc_lookahead=50 / rc=2pass / mbtree=1 / bitrate=8780 / ratetol=1.0 / qcomp=0.60 / qpmin=0 / qpmax=69 / qpstep=4 / cplxblur=20.0 / qblur=0.5 / ip_ratio=1.40 / aq=1:1.00
  25. Language                                 : English
  26. Default                                  : Yes
  27. Forced                                   : No
  28. Audio
  29. ID                                       : 2
  30. Format                                   : DTS
  31. Format/Info                              : Digital Theater Systems
  32. Codec ID                                 : A_DTS
  33. Duration                                 : 1 h 38 min
  34. Bit rate mode                            : Constant
  35. Bit rate                                 : 768 kb/s
  36. Channel(s)                               : 2 channels
  37. Channel layout                           : L R
  38. Sampling rate                            : 48.0 kHz
  39. Frame rate                               : 93.750 FPS (512 SPF)
  40. Bit depth                                : 24 bits
  41. Compression mode                         : Lossy
  42. Stream size                              : 540 MiB (8%)
  43. Title                                    : French
  44. Language                                 : French
  45. Default                                  : Yes
  46. Forced                                   : No
  47. Text
  48. ID                                       : 3
  49. Format                                   : UTF-8
  50. Codec ID                                 : S_TEXT/UTF8
  51. Codec ID/Info                            : UTF-8 Plain Text
  52. Duration                                 : 1 h 35 min
  53. Bit rate                                 : 60 b/s
  54. Frame rate                               : 0.188 FPS
  55. Count of elements                        : 1079
  56. Stream size                              : 42.4 KiB (0%)
  57. Language                                 : English
  58. Default                                  : Yes
  59. Forced                                   : No
  60. Menu
  61. 00:00:00.000                             : :(01)00:00:00:000
  62. 00:09:23.269                             : :(02)00:09:23:269
  63. 00:20:56.380                             : :(03)00:20:56:380
  64. 00:37:27.954                             : :(04)00:37:27:954
  65. 00:40:52.282                             : :(05)00:40:52:282
  66. 00:48:07.467                             : :(06)00:48:07:467
  67. 00:54:49.034                             : :(07)00:54:49:034
  68. 01:02:40.505                             : :(08)01:02:40:505
  69. 01:11:16.145                             : :(09)01:11:16:145
  70. 01:18:07.765                             : :(10)01:18:07:765
  71. 01:20:02.921                             : :(11)01:20:02:921
  72. 01:36:13.893                             : :(12)01:36:13:893
复制代码



蓝光高清网提示您 点击下方附件即可下载

最后一次接触 Happy.Easter.1984.FRENCH.1080p.BluRay.x264.DTS-NOGRP 6.56GB

Happy.Easter.1984.FRENCH.1080p.BluRay.x264.DTS-NOGRP.torrent ( 17.03 KB )

加入蓝光高清网VIP会员  无限制下载本站所有资源---点这里

资源下载、资源播放、字幕使用、无法下载等常见问题---点这里
回复

使用道具 举报

全部回复1 显示全部楼层
热水滴 发表于 昨天 07:49 | 显示全部楼层
谢谢楼主分享
回复 支持 反对

使用道具 举报

发表回复

您需要登录后才可以回帖 登录 | 立即注册

本版积分规则

开通会员 帮助中心 返回顶部 返回列表