本站已运行

蓝光高清网

搜索
开启左侧

[喜剧] 临阵退缩 The.First.Time.1969.1080p.BluRay.x264.FLAC.2.0-HANDJOB 6.53GB

蓝鸟 发表于 3 天前 | 显示全部楼层 |阅读模式


标  题 临阵退缩
片  名 The First Time
年  代 1968
产  地 美国
类  别 喜剧
语  言 英语
上映日期 1969-06-11
IMDb评分 4.9/10 (438人评价)
片  长 90 分钟
导  演 詹姆斯·涅尔森 James Neilson
编  剧 乔·海姆斯 Jo Heims
       Roger Smith Roger Smith
演  员 杰奎琳·比塞特 Jacqueline Bisset
       Wes Stern Wes Stern
       Ricky Kelman Ricky Kelman
       Cosette Lee Cosette Lee
       Leslie Yeo Leslie Yeo
       Gerard Parkes Gerard Parkes
       Wink Roberts Wink Roberts
       莎朗·阿克尔 Sharon Acker
       阿伦·卡尔 Allan Carr
       Kenyon Hopkins Kenyon Hopkins
       厄内斯特`拉斯洛 Ernest Laszlo
       Bud Molin Bud Molin
       Trevor Williams Trevor Williams
       Ken Brooke Ken Brooke


影片参数
  1. Video
  2. ID                                       : 1
  3. Format                                   : AVC
  4. Format/Info                              : Advanced Video Codec
  5. Format profile                           : [email protected]
  6. Format settings                          : CABAC / 4 Ref Frames
  7. Format settings, CABAC                   : Yes
  8. Format settings, Reference frames        : 4 frames
  9. Codec ID                                 : V_MPEG4/ISO/AVC
  10. Duration                                 : 1 h 29 min
  11. Bit rate                                 : 9 961 kb/s
  12. Width                                    : 1 916 pixels
  13. Height                                   : 1 040 pixels
  14. Display aspect ratio                     : 1.85:1
  15. Frame rate mode                          : Constant
  16. Frame rate                               : 23.976 (24000/1001/189150) FPS
  17. Color space                              : YUV
  18. Chroma subsampling                       : 4:2:0
  19. Bit depth                                : 8 bits
  20. Scan type                                : Progressive
  21. Bits/(Pixel*Frame)                       : 0.208
  22. Stream size                              : 6.26 GiB (96%)
  23. Writing library                          : x264 core 164 r3065 ae03d92
  24. Encoding settings                        : cabac=1 / ref=4 / deblock=1:-3:-3 / analyse=0x3:0x133 / me=umh / subme=10 / psy=1 / psy_rd=1.00:0.00 / mixed_ref=1 / me_range=32 / chroma_me=1 / trellis=2 / 8x8dct=1 / cqm=0 / deadzone=21,11 / fast_pskip=0 / chroma_qp_offset=-2 / threads=32 / lookahead_threads=8 / sliced_threads=0 / nr=0 / decimate=0 / interlaced=0 / bluray_compat=0 / constrained_intra=0 / bframes=16 / b_pyramid=2 / b_adapt=2 / b_bias=0 / direct=3 / weightb=1 / open_gop=0 / weightp=2 / keyint=240 / keyint_min=24 / scenecut=40 / intra_refresh=0 / rc_lookahead=60 / rc=crf / mbtree=0 / crf=20.8 / qcomp=0.60 / qpmin=0 / qpmax=69 / qpstep=4 / vbv_maxrate=62500 / vbv_bufsize=78125 / crf_max=0.0 / nal_hrd=none / filler=0 / ip_ratio=1.40 / pb_ratio=1.30 / aq=2:1.00
  25. Default                                  : Yes
  26. Forced                                   : No
  27. Color range                              : Limited
  28. Color primaries                          : BT.709
  29. Transfer characteristics                 : BT.709
  30. Matrix coefficients                      : BT.709
  31. Audio
  32. ID                                       : 2
  33. Format                                   : FLAC
  34. Format/Info                              : Free Lossless Audio Codec
  35. Codec ID                                 : A_FLAC
  36. Duration                                 : 1 h 29 min
  37. Bit rate mode                            : Variable
  38. Bit rate                                 : 412 kb/s
  39. Channel(s)                               : 2 channels
  40. Channel layout                           : L R
  41. Sampling rate                            : 48.0 kHz
  42. Frame rate                               : 11.719 FPS (4096 SPF)
  43. Bit depth                                : 16 bits
  44. Compression mode                         : Lossless
  45. Stream size                              : 265 MiB (4%)
  46. Writing library                          : libFLAC 1.3.3 (UTC 2019-08-04)
  47. Language                                 : English
  48. Default                                  : Yes
  49. Forced                                   : No
  50. Text
  51. ID                                       : 3
  52. Format                                   : PGS
  53. Muxing mode                              : zlib
  54. Codec ID                                 : S_HDMV/PGS
  55. Codec ID/Info                            : Picture based subtitle format used on BDs/HD-DVDs
  56. Duration                                 : 1 h 25 min
  57. Bit rate                                 : 26.8 kb/s
  58. Frame rate                               : 0.448 FPS
  59. Count of elements                        : 2288
  60. Stream size                              : 16.4 MiB (0%)
  61. Language                                 : Japanese
  62. Default                                  : No
  63. Forced                                   : No
  64. Menu
  65. 00:00:00.000                             : en:Chapter 01
  66. 00:03:50.188                             : en:Chapter 02
  67. 00:08:27.257                             : en:Chapter 03
  68. 00:13:13.334                             : en:Chapter 04
  69. 00:20:33.315                             : en:Chapter 05
  70. 00:25:50.257                             : en:Chapter 06
  71. 00:39:01.839                             : en:Chapter 07
  72. 00:46:55.354                             : en:Chapter 08
  73. 00:54:02.239                             : en:Chapter 09
  74. 01:00:10.857                             : en:Chapter 10
  75. 01:16:55.820                             : en:Chapter 11
  76. 01:25:58.945                             : en:Chapter 12
复制代码



蓝光高清网提示您 点击下方附件即可下载

临阵退缩 The.First.Time.1969.1080p.BluRay.x264.FLAC.2.0-HANDJOB 6.53GB

The.First.Time.1969.1080p.BluRay.x264.FLAC.2.0-HANDJOB.torrent ( 16.95 KB )

加入蓝光高清网VIP会员  无限制下载本站所有资源---点这里

资源下载、资源播放、字幕使用、无法下载等常见问题---点这里
回复

使用道具 举报

全部回复0 显示全部楼层

发表回复

您需要登录后才可以回帖 登录 | 立即注册

本版积分规则

开通会员 帮助中心 返回顶部 返回列表