本站已运行

蓝光高清网

搜索
开启左侧

[剧情] 伶人泪 Salut.L.Artiste.1973.FRENCH.1080p.BluRay.x264.FLAC2.0-HANDJOB 7.71GB

蓝鸟 发表于 3 天前 | 显示全部楼层 |阅读模式


标  题 伶人泪
译  名 Hail the Artist
片  名 Salut l''artiste
年  代 1973
产  地 法国 / 意大利
类  别 剧情 / 喜剧
语  言 法语
上映日期 1973-12-06
IMDb评分 6.1/10 (268人评价)
片  长 96分钟
导  演 伊夫·罗贝尔 Yves Robert
编  剧 让-卢·达巴迪 Jean-Loup Dabadie
       伊夫·罗贝尔 Yves Robert
演  员 马塞洛·马斯楚安尼 Marcello Mastroianni
       亨利-雅克·于埃 Henri-Jacques Huet
       Lucienne Legrand Lucienne Legrand
       皮埃尔·蒙科尔比耶 Pierre Moncorbier
       Yves-Marie Maurin Yves-Marie Maurin
       西蒙娜·帕里斯 Simone Paris
       克莱尔·纳多 Claire Nadeau
       莫里斯里什 Maurice Risch
       Jane Val Jane Val
       伊丽莎白·泰瑟西亚 Elizabeth Teissier
       Max Vialle Max Vialle
       Hélène Vallier Hélène Vallier
       伊夫·罗贝尔 Yves Robert
       西尔维·乔莉 Sylvie Joly
       维克托·加里维耶 Victor Garrivier
       卡拉·歌拉薇娜 Carla Gravina
       Gérard Sire Gérard Sire
       让·雷谢夫 Jean Rochefort
       热拉尔·朱尼奥 Gérard Jugnot
       弗兰西丝·法比安 Françoise Fabian
       尼科尔·雅梅 Nicole Jamet
       莫里斯·巴里埃 Maurice Barrier
       保罗·博尼法 Paul Bonifas
       贝蒂·贝克尔斯 Betty Beckers
       路易丝·舍瓦利耶 Louise Chevalier
       罗贝尔·达尔邦 Robert Dalban
       Xavier Gélin Xavier Gélin
       莉丝·德拉马尔 Lise Delamare
       埃弗琳·布尔 Evelyne Buyle
       瓦拉狄米·科斯马 Vladimir Cosma
       Jean Penzer Jean Penzer
       泰奥巴尔特·默里斯 Théobald Meurisse
       让-皮埃尔·艾辰 Jean-Pierre Eychenne


影片参数
  1. Video
  2. ID                                       : 1
  3. Format                                   : AVC
  4. Format/Info                              : Advanced Video Codec
  5. Format profile                           : [email protected]
  6. Format settings                          : CABAC / 4 Ref Frames
  7. Format settings, CABAC                   : Yes
  8. Format settings, Reference frames        : 4 frames
  9. Codec ID                                 : V_MPEG4/ISO/AVC
  10. Duration                                 : 1 h 36 min
  11. Bit rate                                 : 11.1 Mb/s
  12. Width                                    : 1 790 pixels
  13. Height                                   : 1 080 pixels
  14. Display aspect ratio                     : 5:3
  15. Frame rate mode                          : Constant
  16. Frame rate                               : 23.976 (24000/1001/189150) FPS
  17. Color space                              : YUV
  18. Chroma subsampling                       : 4:2:0
  19. Bit depth                                : 8 bits
  20. Scan type                                : Progressive
  21. Bits/(Pixel*Frame)                       : 0.240
  22. Stream size                              : 7.52 GiB (98%)
  23. Writing library                          : x264 core 164 r3065 ae03d92
  24. Encoding settings                        : cabac=1 / ref=4 / deblock=1:-3:-3 / analyse=0x3:0x133 / me=umh / subme=10 / psy=1 / psy_rd=1.00:0.00 / mixed_ref=1 / me_range=32 / chroma_me=1 / trellis=2 / 8x8dct=1 / cqm=0 / deadzone=21,11 / fast_pskip=0 / chroma_qp_offset=-2 / threads=34 / lookahead_threads=8 / sliced_threads=0 / nr=0 / decimate=0 / interlaced=0 / bluray_compat=0 / constrained_intra=0 / bframes=16 / b_pyramid=2 / b_adapt=2 / b_bias=0 / direct=3 / weightb=1 / open_gop=0 / weightp=2 / keyint=240 / keyint_min=24 / scenecut=40 / intra_refresh=0 / rc_lookahead=60 / rc=crf / mbtree=0 / crf=22.0 / qcomp=0.60 / qpmin=0 / qpmax=69 / qpstep=4 / vbv_maxrate=62500 / vbv_bufsize=78125 / crf_max=0.0 / nal_hrd=none / filler=0 / ip_ratio=1.40 / pb_ratio=1.30 / aq=2:1.00
  25. Default                                  : Yes
  26. Forced                                   : No
  27. Color range                              : Limited
  28. Color primaries                          : BT.709
  29. Transfer characteristics                 : BT.709
  30. Matrix coefficients                      : BT.709
  31. Audio
  32. ID                                       : 2
  33. Format                                   : FLAC
  34. Format/Info                              : Free Lossless Audio Codec
  35. Codec ID                                 : A_FLAC
  36. Duration                                 : 1 h 36 min
  37. Bit rate mode                            : Variable
  38. Bit rate                                 : 264 kb/s
  39. Channel(s)                               : 2 channels
  40. Channel layout                           : L R
  41. Sampling rate                            : 48.0 kHz
  42. Frame rate                               : 11.719 FPS (4096 SPF)
  43. Bit depth                                : 16 bits
  44. Compression mode                         : Lossless
  45. Stream size                              : 183 MiB (2%)
  46. Writing library                          : libFLAC 1.3.4 (UTC 2022-02-20)
  47. Language                                 : French
  48. Default                                  : Yes
  49. Forced                                   : No
  50. Text #1
  51. ID                                       : 3
  52. Format                                   : UTF-8
  53. Codec ID                                 : S_TEXT/UTF8
  54. Codec ID/Info                            : UTF-8 Plain Text
  55. Duration                                 : 1 h 34 min
  56. Bit rate                                 : 47 b/s
  57. Frame rate                               : 0.173 FPS
  58. Count of elements                        : 983
  59. Stream size                              : 33.2 KiB (0%)
  60. Language                                 : English
  61. Default                                  : Yes
  62. Forced                                   : No
  63. Text #2
  64. ID                                       : 4
  65. Format                                   : PGS
  66. Muxing mode                              : zlib
  67. Codec ID                                 : S_HDMV/PGS
  68. Codec ID/Info                            : Picture based subtitle format used on BDs/HD-DVDs
  69. Duration                                 : 1 h 36 min
  70. Bit rate                                 : 29.6 kb/s
  71. Frame rate                               : 0.493 FPS
  72. Count of elements                        : 2848
  73. Stream size                              : 20.4 MiB (0%)
  74. Title                                    : SDH
  75. Language                                 : French
  76. Default                                  : No
  77. Forced                                   : No
  78. Menu
  79. 00:00:00.000                             : en:Chapter 1
  80. 00:10:14.530                             : en:Chapter 2
  81. 00:20:40.447                             : en:Chapter 3
  82. 00:31:12.370                             : en:Chapter 4
  83. 00:39:04.467                             : en:Chapter 5
  84. 00:44:46.725                             : en:Chapter 6
  85. 00:56:43.233                             : en:Chapter 7
  86. 01:00:51.147                             : en:Chapter 8
  87. 01:07:07.189                             : en:Chapter 9
  88. 01:13:08.592                             : en:Chapter 10
  89. 01:21:45.400                             : en:Chapter 11
  90. 01:31:00.663                             : en:Chapter 12
复制代码



蓝光高清网提示您 点击下方附件即可下载

伶人泪 Salut.L.Artiste.1973.FRENCH.1080p.BluRay.x264.FLAC2.0-HANDJOB 7.71GB

Salut.L.Artiste.1973.FRENCH.1080p.BluRay.x264.FLAC2.0-HANDJOB.torrent ( 19.9 KB )

加入蓝光高清网VIP会员  无限制下载本站所有资源---点这里

资源下载、资源播放、字幕使用、无法下载等常见问题---点这里
回复

使用道具 举报

全部回复0 显示全部楼层

发表回复

您需要登录后才可以回帖 登录 | 立即注册

本版积分规则

开通会员 帮助中心 返回顶部 返回列表