本站已运行

蓝光高清网

搜索
开启左侧

[惊悚] 埋葬 Burial.2022.1080p.BluRay.x264-WoAT 8.54GB

蓝鸟 发表于 2022-11-26 09:06:37 | 显示全部楼层 |阅读模式


标  题 埋葬
片  名 Burial
年  代 2022
产  地 英国
类  别 惊悚
语  言 英语
上映日期 2022-09-02(美国)
IMDb评分 6.7/10 (25人评价)
片  长 95分钟
导  演 本·帕克 Ben Parker
编  剧 本·帕克 Ben Parker
演  员 尼芙·阿尔格 Niamh Algar
       汤姆·费尔顿 Tom Felton
       伊恩·哈特 Ian Hart
       汤姆·格林-卡尼 Tom Glynn-Carney

简  介

A small group of Russian soldiers have the task of taking Hitler''s discovered remains back to Stalin in Moscow.


影片参数
  1. Video
  2. ID                                       : 1
  3. Format                                   : AVC
  4. Format/Info                              : Advanced Video Codec
  5. Format profile                           : [email protected]
  6. Format settings                          : CABAC / 5 Ref Frames
  7. Format settings, CABAC                   : Yes
  8. Format settings, Reference frames        : 5 frames
  9. Codec ID                                 : V_MPEG4/ISO/AVC
  10. Duration                                 : 1 h 29 min
  11. Bit rate                                 : 13.0 Mb/s
  12. Width                                    : 1 920 pixels
  13. Height                                   : 804 pixels
  14. Display aspect ratio                     : 2.40:1
  15. Frame rate mode                          : Constant
  16. Frame rate                               : 25.000 FPS
  17. Color space                              : YUV
  18. Chroma subsampling                       : 4:2:0
  19. Bit depth                                : 8 bits
  20. Scan type                                : Progressive
  21. Bits/(Pixel*Frame)                       : 0.337
  22. Stream size                              : 8.13 GiB (95%)
  23. Writing library                          : x264 core 164 r3101 b093bbe
  24. Encoding settings                        : cabac=1 / ref=5 / deblock=1:-3:-3 / analyse=0x3:0x133 / me=umh / subme=9 / psy=1 / psy_rd=1.00:0.00 / mixed_ref=1 / me_range=32 / chroma_me=1 / trellis=2 / 8x8dct=1 / cqm=0 / deadzone=21,11 / fast_pskip=0 / chroma_qp_offset=-2 / threads=25 / lookahead_threads=4 / sliced_threads=0 / nr=0 / decimate=0 / interlaced=0 / bluray_compat=0 / constrained_intra=0 / bframes=9 / b_pyramid=2 / b_adapt=2 / b_bias=0 / direct=3 / weightb=1 / open_gop=0 / weightp=2 / keyint=250 / keyint_min=25 / scenecut=40 / intra_refresh=0 / rc=crf / mbtree=0 / crf=15.0 / qcomp=0.60 / qpmin=0 / qpmax=69 / qpstep=4 / ip_ratio=1.40 / pb_ratio=1.30 / aq=3:0.88
  25. Default                                  : Yes
  26. Forced                                   : No
  27. Color range                              : Limited
  28. Matrix coefficients                      : BT.709

  29. Audio
  30. ID                                       : 2
  31. Format                                   : AC-3
  32. Format/Info                              : Audio Coding 3
  33. Commercial name                          : Dolby Digital
  34. Codec ID                                 : A_AC3
  35. Duration                                 : 1 h 29 min
  36. Bit rate mode                            : Constant
  37. Bit rate                                 : 640 kb/s
  38. Channel(s)                               : 6 channels
  39. Channel layout                           : L R C LFE Ls Rs
  40. Sampling rate                            : 48.0 kHz
  41. Frame rate                               : 31.250 FPS (1536 SPF)
  42. Compression mode                         : Lossy
  43. Stream size                              : 409 MiB (5%)
  44. Title                                    : English
  45. Language                                 : English
  46. Service kind                             : Complete Main
  47. Default                                  : No
  48. Forced                                   : No

  49. Text
  50. ID                                       : 3
  51. Format                                   : PGS
  52. Muxing mode                              : zlib
  53. Codec ID                                 : S_HDMV/PGS
  54. Codec ID/Info                            : Picture based subtitle format used on BDs/HD-DVDs
  55. Duration                                 : 1 h 23 min
  56. Bit rate                                 : 21.3 kb/s
  57. Count of elements                        : 1437
  58. Stream size                              : 12.7 MiB (0%)
  59. Title                                    : Dutch
  60. Language                                 : Dutch
  61. Default                                  : No
  62. Forced                                   : No

  63. Menu
  64. 00:00:00.000                             : en:Chapter 01
  65. 00:08:35.520                             : en:Chapter 02
  66. 00:16:19.200                             : en:Chapter 03
  67. 00:22:11.520                             : en:Chapter 04
  68. 00:28:00.960                             : en:Chapter 05
  69. 00:32:56.160                             : en:Chapter 06
  70. 00:38:10.560                             : en:Chapter 07
  71. 00:43:04.800                             : en:Chapter 08
  72. 00:49:43.680                             : en:Chapter 09
  73. 00:56:17.280                             : en:Chapter 10
  74. 01:01:08.160                             : en:Chapter 11
  75. 01:07:41.760                             : en:Chapter 12
  76. 01:14:00.000                             : en:Chapter 13
  77. 01:18:37.440                             : en:Chapter 14
  78. 01:23:50.880                             : en:Chapter 15
复制代码



蓝光高清网提示您 点击下方附件即可下载

埋葬 Burial.2022.1080p.BluRay.x264-WoAT 8.54GB

Burial.2022.1080p.BluRay.x264-WoAT.torrent ( 22.01 KB )

加入蓝光高清网VIP会员  无限制下载本站所有资源---点这里

资源下载、资源播放、字幕使用、无法下载等常见问题---点这里
回复

使用道具 举报

全部回复0 显示全部楼层

发表回复

您需要登录后才可以回帖 登录 | 立即注册

本版积分规则