本站已运行

蓝光高清网

搜索
开启左侧

[剧情] 大演习 The.Grand.Maneuver.1955.FRENCH.1080p.BluRay.x264.FLAC.2.0-HANDJOB 8.09GB

蓝鸟 发表于 2022-11-26 09:06:59 | 显示全部楼层 |阅读模式


标  题 大演习
译  名 爱情的游戏 / The Grand Maneuver
片  名 Les Grandes Manoeuvres
年  代 1955
产  地 法国 / 意大利
类  别 剧情 / 喜剧 / 爱情
语  言 法语
上映日期 1955-10-25
IMDb评分 6.7/10 (1018人评价)
豆瓣评分 7.5/10 (137人评价)
片  长 106 分钟
导  演 雷内·克莱尔 René Clair
编  剧 雷内·克莱尔 René Clair
       让·马尔桑 Jean Marsan
演  员 罗贝尔·勒贝亚尔 Robert Le Béal
       Jacques Jouanneau Jacques Jouanneau
       Olivier Hussenot Olivier Hussenot
       Georges Galley Georges Galley
       加布丽埃勒·丰坦 Gabrielle Fontan
       莉丝·德拉马尔 Lise Delamare
       雅克·弗朗索瓦 Jacques François
       Jacqueline Maillan Jacqueline Maillan
       Jacqueline Marbaux Jacqueline Marbaux
       Jean-Pierre Maurin Jean-Pierre Maurin
       Daniel Sorano Daniel Sorano
       朱迪思·马格里 Judith Magre
       帕洛 Palau
       雅克·莫雷尔 Jacques Morel
       西蒙娜·瓦莱尔 Simone Valère
       阿莱特·托马斯 Arlette Thomas
       罗歇·樊尚 Roger Vincent
       雅克·法布里 Jacques Fabbri
       玛塞勒·热纳维耶芙·埃莱娜公爵 Hélène Duc
       让·德赛利 Jean Desailly
       达尼·卡雷尔 Dany Carrel
       克洛德·里什 Claude Rich
       钱拉·菲利普 Gérard Philipe
       米歇尔·摩根 Michèle Morgan
       碧姬·芭铎 Brigitte Bardot
       伊夫·罗贝尔 Yves Robert
       米歇尔·皮科利 Michel Piccoli
       Catherine Anouilh Catherine Anouilh
       弗朗斯·阿瑟兰 France Asselin
       保罗·费弗尔 Paul Faivre
       皮埃尔·迪克斯 Pierre Dux
       伯纳德·德兰 Bernard Dhéran
       雷蒙·科尔迪 Raymond Cordy
       丹尼尔·塞卡尔迪 Daniel Ceccaldi
       Georges Carrère Georges Carrère
       Georges Bever Georges Bever
       玛德莱娜·巴尔比莱 Madeleine Barbulée
       玛加莉·诺埃尔 Magali Noël
       雷内·克莱尔 René Clair
       André Daven André Daven
       Georges Van Parys Georges Van Parys
       Robert Lefebvre Robert Lefebvre
       Louisette Hautecoeur Louisette Hautecoeur
       里昂·巴萨克 Léon Barsacq
       罗辛·德拉马尔 Rosine Delamare
       米歇尔·博斯荣德 Michel Boisrond

简  介

德拉维尔蒙(杰拉·菲利浦 Gérard Philipe 饰)是一位年轻而又英俊的军官,无数的女人们臣服在他的花言巧语之下,而他的各种风流韵事亦在大街小巷里传得沸沸扬扬。某日,德拉维尔蒙和好友勒鲁瓦打了一赌,赌他在这个月之内能够斩获一位女士的芳心,在舞会上,德拉维尔蒙将筹码压在了名叫玛莉路易斯(米歇尔·摩根 Michèle Morgan 饰)的女子身上,随即对她展开了热烈的攻势。                                    
                                玛丽路易斯还有另一位名叫杜维尔格(让·德赛利 Jean Desailly 饰)的追求者,他的存在激起了德拉维尔蒙的胜负心,这一次,他表现的格外卖力。哪知道随着时间的推移,德拉维尔蒙竟然真的爱上了风情万种的玛莉路易斯。


影片参数
  1. Video
  2. ID                                       : 1
  3. Format                                   : AVC
  4. Format/Info                              : Advanced Video Codec
  5. Format profile                           : [email protected]
  6. Format settings                          : CABAC / 5 Ref Frames
  7. Format settings, CABAC                   : Yes
  8. Format settings, Reference frames        : 5 frames
  9. Codec ID                                 : V_MPEG4/ISO/AVC
  10. Duration                                 : 1 h 47 min
  11. Bit rate                                 : 10.6 Mb/s
  12. Width                                    : 1 480 pixels
  13. Height                                   : 1 080 pixels
  14. Display aspect ratio                     : 1.370
  15. Frame rate mode                          : Constant
  16. Frame rate                               : 24.000 FPS
  17. Color space                              : YUV
  18. Chroma subsampling                       : 4:2:0
  19. Bit depth                                : 8 bits
  20. Scan type                                : Progressive
  21. Bits/(Pixel*Frame)                       : 0.275
  22. Stream size                              : 7.92 GiB (98%)
  23. Writing library                          : x264 core 164 r3065 ae03d92
  24. Encoding settings                        : cabac=1 / ref=5 / deblock=1:-3:-3 / analyse=0x3:0x133 / me=umh / subme=10 / psy=1 / psy_rd=1.00:0.00 / mixed_ref=1 / me_range=32 / chroma_me=1 / trellis=2 / 8x8dct=1 / cqm=0 / deadzone=21,11 / fast_pskip=0 / chroma_qp_offset=-2 / threads=34 / lookahead_threads=8 / sliced_threads=0 / nr=0 / decimate=0 / interlaced=0 / bluray_compat=0 / constrained_intra=0 / bframes=16 / b_pyramid=2 / b_adapt=2 / b_bias=0 / direct=3 / weightb=1 / open_gop=0 / weightp=2 / keyint=240 / keyint_min=24 / scenecut=40 / intra_refresh=0 / rc_lookahead=60 / rc=crf / mbtree=0 / crf=20.8 / qcomp=0.60 / qpmin=0 / qpmax=69 / qpstep=4 / vbv_maxrate=62500 / vbv_bufsize=78125 / crf_max=0.0 / nal_hrd=none / filler=0 / ip_ratio=1.40 / pb_ratio=1.30 / aq=2:1.00
  25. Default                                  : Yes
  26. Forced                                   : No
  27. Color range                              : Limited
  28. Color primaries                          : BT.709
  29. Transfer characteristics                 : BT.709
  30. Matrix coefficients                      : BT.709
  31. Audio
  32. ID                                       : 2
  33. Format                                   : FLAC
  34. Format/Info                              : Free Lossless Audio Codec
  35. Codec ID                                 : A_FLAC
  36. Duration                                 : 1 h 47 min
  37. Bit rate mode                            : Variable
  38. Bit rate                                 : 203 kb/s
  39. Channel(s)                               : 2 channels
  40. Channel layout                           : L R
  41. Sampling rate                            : 48.0 kHz
  42. Frame rate                               : 10.417 FPS (4608 SPF)
  43. Bit depth                                : 16 bits
  44. Compression mode                         : Lossless
  45. Stream size                              : 156 MiB (2%)
  46. Writing library                          : Lavf59.9.102
  47. Language                                 : French
  48. Default                                  : Yes
  49. Forced                                   : No
  50. Text #1
  51. ID                                       : 3
  52. Format                                   : UTF-8
  53. Codec ID                                 : S_TEXT/UTF8
  54. Codec ID/Info                            : UTF-8 Plain Text
  55. Duration                                 : 1 h 43 min
  56. Bit rate                                 : 60 b/s
  57. Frame rate                               : 0.194 FPS
  58. Count of elements                        : 1203
  59. Stream size                              : 45.7 KiB (0%)
  60. Language                                 : English
  61. Default                                  : Yes
  62. Forced                                   : No
  63. Text #2
  64. ID                                       : 4
  65. Format                                   : PGS
  66. Muxing mode                              : zlib
  67. Codec ID                                 : S_HDMV/PGS
  68. Codec ID/Info                            : Picture based subtitle format used on BDs/HD-DVDs
  69. Duration                                 : 1 h 47 min
  70. Bit rate                                 : 35.5 kb/s
  71. Frame rate                               : 0.479 FPS
  72. Count of elements                        : 3078
  73. Stream size                              : 27.2 MiB (0%)
  74. Title                                    : SDH
  75. Language                                 : French
  76. Default                                  : No
  77. Forced                                   : No
  78. Menu
  79. 00:00:00.000                             : en:Credits / Rendezvous
  80. 00:05:43.000                             : en:The Cavalry
  81. 00:12:00.000                             : en:Looking For Love
  82. 00:17:27.000                             : en:Lucky Numbers
  83. 00:24:27.000                             : en:Let\''s Dance
  84. 00:30:33.000                             : en:Surprise
  85. 00:36:44.000                             : en:Coming To Tea
  86. 00:43:06.000                             : en:Everybody\''s Talking
  87. 00:49:01.000                             : en:26 Days To Go
  88. 00:54:48.000                             : en:Alone At Last
  89. 01:00:37.000                             : en:Champagne?
  90. 01:06:55.000                             : en:Letters
  91. 01:12:07.000                             : en:Laughing Stock
  92. 01:18:38.000                             : en:Confrontation
  93. 01:25:15.000                             : en:Let\''s Talk
  94. 01:31:33.000                             : en:Is He Dead
  95. 01:36:26.000                             : en:The Truth
  96. 01:45:42.000                             : en:Leaving / The End
复制代码



蓝光高清网提示您 点击下方附件即可下载

大演习 The.Grand.Maneuver.1955.FRENCH.1080p.BluRay.x264.FLAC.2.0-HANDJOB 8.09GB

The.Grand.Maneuver.1955.FRENCH.1080p.BluRay.x264.FLAC.2.0-HANDJOB.torrent ( 20.9 KB )

加入蓝光高清网VIP会员  无限制下载本站所有资源---点这里

资源下载、资源播放、字幕使用、无法下载等常见问题---点这里
回复

使用道具 举报

全部回复0 显示全部楼层

发表回复

您需要登录后才可以回帖 登录 | 立即注册

本版积分规则