本站已运行

蓝光高清网

搜索
开启左侧

[美国] 多莉·帕顿:MusiCares致敬演唱4k.Dolly.Parton.A.MusiCares.Tribute.2021.2160p.NF.WEB-DL.x265.10bit.HDR.DDP5.1-4k杜比视界演唱会下载

蓝鸟 发表于 2022-11-30 11:16:38 | 显示全部楼层 |阅读模式

多莉·帕顿:MusiCares致敬演唱4k.Dolly.Parton.A.MusiCares.Tribute.2021.2160p.NF.WEB-DL.x265.10bit.HDR ...

多莉·帕顿:MusiCares致敬演唱4k.Dolly.Parton.A.MusiCares.Tribute.2021.2160p.NF.WEB-DL.x265.10bit.HDR ...




简       介


  在这个星光熠熠的音乐与回忆之夜,多位著名歌手向MusiCares的年度人物奖得主多莉·帕顿致敬。

影片参数
多莉·帕顿:MusiCares致敬演唱4k.Dolly.Parton.A.MusiCares.Tribute.2021.2160p.NF.WEB-DL.x265.10bit.HDR.DDP5.1-4k杜比视界演唱会信息
Video
ID : 1
Format : HEVC
Format/Info : High Efficiency Video Coding
Format profile : Main 10@L5@Main
HDR format : Dolby Vision, Version 1.0, dvhe.08.06, BL+RPU, HDR10 compatible / SMPTE ST 2086, HDR10 compatible
Codec ID : V_MPEGH/ISO/HEVC
Duration : 54 min 37 s
Bit rate : 16.1 Mb/s
Width : 3 840 pixels
Height : 2 160 pixels
Display aspect ratio : 16:9
Frame rate mode : Constant
Frame rate : 23.976 (24000/1001) FPS
Color space : YUV
Chroma subsampling : 4:2:0 (Type 2)
Bit depth : 10 bits
Bits/(Pixel*Frame) : 0.081
Stream size : 6.13 GiB (96%)
Default : Yes
Forced : No
Color range : Limited
Color primaries : BT.2020
Transfer characteristics : PQ
Matrix coefficients : BT.2020 non-constant
Mastering display color primaries : Display P3
Mastering display luminance : min: 0.0001 cd/m2, max: 1000 cd/m2
Maximum Content Light Level : 2279 cd/m2
Maximum Frame-Average Light Level : 306 cd/m2


Audio
ID : 2
Format : E-AC-3
Format/Info : Enhanced AC-3
Commercial name : Dolby Digital Plus
Codec ID : A_EAC3
Duration : 55 min 19 s
Bit rate mode : Constant
Bit rate : 640 kb/s
Channel(s) : 6 channels
Channel layout : L R C LFE Ls Rs
Sampling rate : 48.0 kHz
Frame rate : 31.250 FPS (1536 SPF)
Compression mode : Lossy
Stream size : 253 MiB (4%)
Language : English
Service kind : Complete Main
Default : Yes
Forced : No


Text #1
ID : 3
Format : UTF-8
Codec ID : S_TEXT/UTF8
Codec ID/Info : UTF-8 Plain Text
Duration : 52 min 28 s
Bit rate : 34 b/s
Frame rate : 0.100 FPS
Count of elements : 316
Stream size : 13.4 KiB (0%)
Language : English
Default : No
Forced : No


Text #2
ID : 4
Format : UTF-8
Codec ID : S_TEXT/UTF8
Codec ID/Info : UTF-8 Plain Text
Duration : 53 min 38 s
Bit rate : 96 b/s
Frame rate : 0.302 FPS
Count of elements : 972
Stream size : 37.9 KiB (0%)
Title : SDH
Language : English
Default : No
Forced : No
Text #29
ID : 31
Format : UTF-8
Codec ID : S_TEXT/UTF8
Codec ID/Info : UTF-8 Plain Text
Duration : 54 min 23 s
Bit rate : 33 b/s
Frame rate : 0.095 FPS
Count of elements : 310
Stream size : 13.5 KiB (0%)
Language : Turkish
Default : No
Forced : No


Text #30
ID : 32
Format : UTF-8
Codec ID : S_TEXT/UTF8
Codec ID/Info : UTF-8 Plain Text
Duration : 54 min 23 s
Bit rate : 51 b/s
Frame rate : 0.096 FPS
Count of elements : 314
Stream size : 20.4 KiB (0%)
Language : Ukrainian
Default : No
Forced : No


Text #31
ID : 33
Format : UTF-8
Codec ID : S_TEXT/UTF8
Codec ID/Info : UTF-8 Plain Text
Duration : 54 min 23 s
Bit rate : 48 b/s
Frame rate : 0.092 FPS
Count of elements : 299
Stream size : 19.5 KiB (0%)
Language : Vietnamese
Default : No
Forced : No


Text #32
ID : 34
Format : UTF-8
Codec ID : S_TEXT/UTF8
Codec ID/Info : UTF-8 Plain Text
Duration : 54 min 23 s
Bit rate : 33 b/s
Frame rate : 0.101 FPS
Count of elements : 330
Stream size : 13.4 KiB (0%)
Title : Simplified
Language : Chinese
Default : No
Forced : No


Text #33
ID : 35
Format : UTF-8
Codec ID : S_TEXT/UTF8
Codec ID/Info : UTF-8 Plain Text
Duration : 54 min 23 s
Bit rate : 29 b/s
Frame rate : 0.099 FPS
Count of elements : 324
Stream size : 11.9 KiB (0%)
Title : Traditional
Language : Chinese
Default : No
Forced : No


Menu
00:54:30.000 : en:End Credits

蓝光高清网提示您 点击下方附件名称 即可开始下载


多版本下载时请注意区分


多莉·帕顿:MusiCares致敬演唱4k.Dolly.Parton.A.MusiCares.Tribute.2021.2160p.NF.WEB-DL.x265.10bit.HDR.DDP5.1-4k杜比视界演唱会下载

多莉·帕顿:MusiCares致敬演唱4k.Dolly.Parton.A.MusiCares.Tribute.2021.2160p.NF.WEB-DL.x265.10bit.HDR.DDP5.1-简繁中字【杜比视界】【6.38 GB】


多莉·帕顿:MusiCares致敬演唱4k.Dolly.Parton.A.MusiCares.Tribute.2021.2160p.NF.WEB-DL.x265.10bit.SDR.DDP5.1-简繁中字【4.89 GB】


多莉·帕顿:MusiCares致敬演唱4k.Dolly.Parton.A.MusiCares.Tribute.2021.2160p.NF.WEB-DL.DDP5.1.DV.MP4.x265【杜比视界】【6.47 GB】


多莉·帕顿:MusiCares致敬演唱4k.Dolly.Parton.A.MusiCares.Tribute.2021.2160p.NF.WEB-DL.DDP5.1.DV.MKV.x265-简繁中字【杜比视界】【6.47 GB】



来源: 多莉·帕顿:MusiCares致敬演唱4k.Dolly.Parton.A.MusiCares.Tribute.2021.2160p.NF.WEB-DL.x265.10bit.HDR.DDP5.1-4k杜比视界演唱会下载
加入蓝光高清网VIP会员  无限制下载本站所有资源---点这里

资源下载、资源播放、字幕使用、无法下载等常见问题---点这里
回复

使用道具 举报

全部回复1 显示全部楼层
wangzhang3手机认证 发表于 2022-12-8 12:00:18 | 显示全部楼层
楼主辛苦了,谢谢分享
回复 支持 反对

使用道具 举报

发表回复

您需要登录后才可以回帖 登录 | 立即注册

本版积分规则