本站已运行

蓝光高清网

搜索
开启左侧

[美国] 斯普林斯汀:百老汇音乐会4k.Springsteen.on.Broadway.2018.2160p.NF.WEB-DL.x265.10bit.HDR.DDP5.1-音乐会下载

蓝鸟 发表于 2022-12-4 17:28:29 | 显示全部楼层 |阅读模式

斯普林斯汀:百老汇音乐会4k.Springsteen.on.Broadway.2018.2160p.NF.WEB-DL.x265.10bit.HDR.DDP5.1-音乐会 ...

斯普林斯汀:百老汇音乐会4k.Springsteen.on.Broadway.2018.2160p.NF.WEB-DL.x265.10bit.HDR.DDP5.1-音乐会 ...




简       介


       布鲁斯·斯普林斯汀(Bruce Springsteen)的236场演出在百老汇的贾姆辛(Jujamcyn)沃尔特·克尔剧院(Walter Kerr Theatre)上演,这是最后一场亲密的演出。

影片参数
斯普林斯汀:百老汇音乐会4k.Springsteen.on.Broadway.2018.2160p.NF.WEB-DL.x265.10bit.HDR.DDP5.1-音乐会信息
Video
ID : 1
Format : HEVC
Format/Info : High Efficiency Video Coding
Format profile : Main 10@L5@Main
HDR format : Dolby Vision, Version 1.0, dvhe.08.06, BL+RPU, HDR10 compatible / SMPTE ST 2086, HDR10 compatible
Codec ID : V_MPEGH/ISO/HEVC
Duration : 2 h 33 min
Bit rate : 15.7 Mb/s
Width : 3 840 pixels
Height : 2 160 pixels
Display aspect ratio : 16:9
Frame rate mode : Constant
Frame rate : 23.976 (24000/1001) FPS
Color space : YUV
Chroma subsampling : 4:2:0 (Type 2)
Bit depth : 10 bits
Bits/(Pixel*Frame) : 0.079
Stream size : 16.8 GiB (96%)
Default : Yes
Forced : No
Color range : Limited
Color primaries : BT.2020
Transfer characteristics : PQ
Matrix coefficients : BT.2020 non-constant
Mastering display color primaries : Display P3
Mastering display luminance : min: 0.0001 cd/m2, max: 1000 cd/m2
Maximum Content Light Level : 801 cd/m2
Maximum Frame-Average Light Level : 61 cd/m2


Audio
ID : 2
Format : E-AC-3
Format/Info : Enhanced AC-3
Commercial name : Dolby Digital Plus
Codec ID : A_EAC3
Duration : 2 h 33 min
Bit rate mode : Constant
Bit rate : 640 kb/s
Channel(s) : 6 channels
Channel layout : L R C LFE Ls Rs
Sampling rate : 48.0 kHz
Frame rate : 31.250 FPS (1536 SPF)
Compression mode : Lossy
Stream size : 701 MiB (4%)
Language : English
Service kind : Complete Main
Default : Yes
Forced : No


Text #1
ID : 3
Format : UTF-8
Codec ID : S_TEXT/UTF8
Codec ID/Info : UTF-8 Plain Text
Duration : 2 h 27 min
Bit rate : 46 b/s
Frame rate : 0.148 FPS
Count of elements : 1306
Stream size : 50.3 KiB (0%)
Language : English
Default : No
Forced : No


Text #2
ID : 4
Format : UTF-8
Codec ID : S_TEXT/UTF8
Codec ID/Info : UTF-8 Plain Text
Duration : 2 h 28 min
Bit rate : 81 b/s
Frame rate : 0.242 FPS
Count of elements : 2162
Stream size : 88.4 KiB (0%)
Title : SDH
Language : English
Default : No
Forced : No


Text #3
ID : 5
Format : UTF-8
Codec ID : S_TEXT/UTF8
Codec ID/Info : UTF-8 Plain Text
Duration : 2 h 27 min
Bit rate : 73 b/s
Frame rate : 0.144 FPS
Count of elements : 1278
Stream size : 80.0 KiB (0%)
Language : Arabic
Default : No
Forced : No


Text #4
ID : 6
Format : UTF-8
Codec ID : S_TEXT/UTF8
Codec ID/Info : UTF-8 Plain Text
Duration : 2 h 27 min
Bit rate : 44 b/s
Frame rate : 0.144 FPS
Count of elements : 1282
Stream size : 47.9 KiB (0%)
Title : Simplified
Language : Chinese
Default : No
Forced : No


Text #5
ID : 7
Format : UTF-8
Codec ID : S_TEXT/UTF8
Codec ID/Info : UTF-8 Plain Text
Duration : 2 h 27 min
Bit rate : 46 b/s
Frame rate : 0.145 FPS
Count of elements : 1283
Stream size : 50.8 KiB (0%)
Title : Traditional
Language : Chinese
Default : No
Forced : No

蓝光高清网提示您 点击下方附件名称 即可开始下载

斯普林斯汀:百老汇音乐会4k.Springsteen.on.Broadway.2018.2160p.NF.WEB-DL.x265.10bit.HDR.DDP5.1-音乐会下载

斯普林斯汀:百老汇音乐会4k.Springsteen.on.Broadway.2018.2160p.NF.WEB-DL.x265.10bit.HDR.DDP5.1-简繁中字【杜比视界】【17.51 GB】

斯普林斯汀:百老汇音乐会4k.Springsteen.on.Broadway.2018.2160p.NF.WEB-DL.x265.10bit.HDR.DDP5.1-SiC.torrent ( 22.55 KB )



来源: 斯普林斯汀:百老汇音乐会4k.Springsteen.on.Broadway.2018.2160p.NF.WEB-DL.x265.10bit.HDR.DDP5.1-音乐会下载
加入蓝光高清网VIP会员  无限制下载本站所有资源---点这里

资源下载、资源播放、字幕使用、无法下载等常见问题---点这里
回复

使用道具 举报

全部回复1 显示全部楼层
wangzhang3手机认证 发表于 2022-12-7 11:58:31 | 显示全部楼层
楼主辛苦了,谢谢分享
回复 支持 反对

使用道具 举报

发表回复

您需要登录后才可以回帖 登录 | 立即注册

本版积分规则