本站已运行

蓝光高清网

搜索
开启左侧

[8K视频] 惊人的小鸟8K超高清•8D音频 AMAZING BIRDS 8K ULTRA HD • 8D AUDIO 8k视频下载

4k演示 发表于 2022-12-5 19:13:10 | 显示全部楼层 |阅读模式

惊人的小鸟8K超高清•8D音频 AMAZING BIRDS 8K ULTRA HD • 8D AUDIO 8k视频下载

惊人的小鸟8K超高清•8D音频 AMAZING BIRDS 8K ULTRA HD • 8D AUDIO  8k视频下载



影片参数

General
Format                         : MPEG-4
Format profile                 : Base Media
Codec ID                       : isom (isom/iso2/mp41)
File size                      : 11.5 GiB
Duration                       : 55 min 35 s
Overall bit rate               : 29.6 Mb/s
Movie name                     : AMAZING BIRDS 8K ULTRA HD • 8D AUDIO •
Performer                      : 8K VIDEOS ULTRA HD

Video
ID                             : 1
Format                         : AV1
Format/Info                    : AOMedia Video 1
Format profile                 : Main@L6.0
Codec ID                       : av01
Duration                       : 55 min 35 s
Bit rate                       : 29.4 Mb/s
Width                          : 7 680 pixels
Height                         : 4 320 pixels
Display aspect ratio           : 16:9
Frame rate mode                : Constant
Frame rate                     : 30.000 FPS
Color space                    : YUV
Chroma subsampling             : 4:2:0
Bit depth                      : 8 bits
Bits/(Pixel*Frame)             : 0.030
Stream size                    : 11.4 GiB (100%)
Title                          : ISO Media file produced by Google Inc.
Color range                    : Limited
Color primaries                : BT.709
Transfer characteristics       : BT.709
Matrix coefficients            : BT.709
Codec configuration box        : av1C


Audio
ID                             : 2
Format                         : AAC LC
Format/Info                    : Advanced Audio Codec Low Complexity
Codec ID                       : mp4a-40-2
Duration                       : 55 min 35 s
Bit rate mode                  : Constant
Bit rate                       : 128 kb/s
Channel(s)                     : 2 channels
Channel layout                 : L R
Sampling rate                  : 44.1 kHz
Frame rate                     : 43.066 FPS (1024 SPF)
Compression mode               : Lossy
Stream size                    : 50.9 MiB (0%)
Title                          : ISO Media file produced by Google Inc.
Language                       : English
Default                        : Yes
Alternate group                : 1


惊人的小鸟8K超高清•8D音频 AMAZING BIRDS 8K ULTRA HD • 8D AUDIO 8k视频下载

惊人的小鸟8K超高清•8D音频 AMAZING BIRDS 8K ULTRA HD • 8D AUDIO  8k视频下载

惊人的小鸟8K超高清•8D音频 AMAZING BIRDS 8K ULTRA HD • 8D AUDIO 8k视频下载

惊人的小鸟8K超高清•8D音频 AMAZING BIRDS 8K ULTRA HD • 8D AUDIO  8k视频下载


蓝光高清网提示您 点击下方附件名称 即可开始下载


惊人的小鸟8K超高清•8D音频 AMAZING BIRDS 8K ULTRA HD • 8D AUDIO  8k视频下载

AMAZING BIRDS 8K ULTRA HD • 8D AUDIO.txt ( 221 Bytes )



回复

使用道具 举报

全部回复11 显示全部楼层
gdlmxia 发表于 2022-12-5 20:18:32 | 显示全部楼层
驚人的小鳥8k
回复 支持 反对

使用道具 举报

majianguook 发表于 2023-1-8 20:57:31 | 显示全部楼层
不知道我能不能下载下来
回复 支持 反对

使用道具 举报

majianguook 发表于 2023-1-8 21:31:33 | 显示全部楼层
这么好的资源,可惜我下载不了
回复 支持 反对

使用道具 举报

majianguook 发表于 2023-1-9 22:51:47 | 显示全部楼层
这里面的鸟类真漂亮,我每天都想下载。
回复 支持 反对

使用道具 举报

majianguook 发表于 2023-1-10 21:50:09 | 显示全部楼层
惊人的小鸟,让我下载一下可以么,没权限!
回复 支持 反对

使用道具 举报

majianguook 发表于 2023-1-11 22:36:19 | 显示全部楼层
惊人的小鸟,让我下载一下可以么,没权限!
回复 支持 反对

使用道具 举报

majianguook 发表于 2023-1-14 21:52:56 | 显示全部楼层
什么时候放开让我下载一下呢。
回复 支持 反对

使用道具 举报

majianguook 发表于 2023-1-21 22:23:51 | 显示全部楼层
愤怒的小鸟。
回复 支持 反对

使用道具 举报

majianguook 发表于 2023-1-28 22:25:15 | 显示全部楼层
这么好的视频就是需要会员。
回复 支持 反对

使用道具 举报

发表回复

您需要登录后才可以回帖 登录 | 立即注册

本版积分规则