本站已运行

蓝光高清网

搜索
开启左侧

[4k写真集] [4K]秀和比基尼Lookbook BIKINI LOOKBOOK 泳装写真 881MB

4k演示 发表于 2022-12-14 14:50:44 | 显示全部楼层 |阅读模式

[4K]秀和比基尼Lookbook BIKINI LOOKBOOK 泳装写真 881MB

 [4K]秀和比基尼Lookbook BIKINI LOOKBOOK 泳装写真 881MB



视频参数

General
Format                         : MPEG-4
Format profile                 : Base Media
Codec ID                       : isom (isom/iso2/mp41)
File size                      : 881 MiB
Duration                       : 10 min 19 s
Overall bit rate mode          : Variable
Overall bit rate               : 11.9 Mb/s


Video
ID                             : 1
Format                         : vp09
Codec ID                       : vp09
Duration                       : 10 min 18 s
Bit rate                       : 11.8 Mb/s
Width                          : 3 840 pixels
Height                         : 2 160 pixels
Display aspect ratio           : 16:9
Frame rate mode                : Variable
Frame rate                     : 29.970 FPS
Minimum frame rate             : 29.412 FPS
Maximum frame rate             : 31.250 FPS
Bits/(Pixel*Frame)             : 0.048
Stream size                    : 871 MiB (99%)
Language                       : English


Audio
ID                             : 2
Format                         : AAC LC
Format/Info                    : Advanced Audio Codec Low Complexity
Codec ID                       : mp4a-40-2
Duration                       : 10 min 18 s
Duration_LastFrame             : -11 ms
Bit rate mode                  : Constant
Bit rate                       : 129 kb/s
Channel(s)                     : 2 channels
Channel layout                 : L R
Sampling rate                  : 48.0 kHz
Frame rate                     : 46.875 FPS (1024 SPF)
Compression mode               : Lossy
Stream size                    : 9.49 MiB (1%)
Language                       : English
Default                        : Yes
Alternate group                : 1


Text
ID                             : 3
Format                         : Timed Text
Muxing mode                    : sbtl
Codec ID                       : tx3g
Duration                       : 10 min 19 s
Bit rate mode                  : Variable
Bit rate                       : 12 b/s
Frame rate                     : 0.156 FPS
Stream size                    : 905 Bytes (0%)
Default                        : Yes
Forced                         : No
Alternate group                : 3


[4K]秀和比基尼Lookbook BIKINI LOOKBOOK 泳装写真 881MB

 [4K]秀和比基尼Lookbook BIKINI LOOKBOOK 泳装写真 881MB

[4K]秀和比基尼Lookbook BIKINI LOOKBOOK 泳装写真 881MB

 [4K]秀和比基尼Lookbook BIKINI LOOKBOOK 泳装写真 881MB

[4K]秀和比基尼Lookbook BIKINI LOOKBOOK 泳装写真 881MB

 [4K]秀和比基尼Lookbook BIKINI LOOKBOOK 泳装写真 881MB

[4K]秀和比基尼Lookbook BIKINI LOOKBOOK 泳装写真 881MB

 [4K]秀和比基尼Lookbook BIKINI LOOKBOOK 泳装写真 881MB

[4K]秀和比基尼Lookbook BIKINI LOOKBOOK 泳装写真 881MB

 [4K]秀和比基尼Lookbook BIKINI LOOKBOOK 泳装写真 881MB


[4K]秀和比基尼Lookbook BIKINI LOOKBOOK 泳装写真 【881MB】

[4K] 쇼와 비키니 룩북 BIKINI LO...K 昭和 ビキニルックブック.mp4.txt ( 265 Bytes )


回复

使用道具 举报

全部回复3 显示全部楼层
majianguook 发表于 2023-1-2 13:11:07 | 显示全部楼层
真好看的模特。
回复 支持 反对

使用道具 举报

majianguook 发表于 2023-1-9 22:56:47 | 显示全部楼层
模特看起来好飘来你给。
回复 支持 反对

使用道具 举报

lxhhez手机认证 发表于 2023-1-10 12:58:18 | 显示全部楼层
肉肉的真好看
回复 支持 反对

使用道具 举报

发表回复

您需要登录后才可以回帖 登录 | 立即注册

本版积分规则