本站已运行

蓝光高清网

搜索
开启左侧

[专题系列纪录片] 乔琪·斯通:梦想人生4k.The.Dreamlife.of.Georgie.Stone.2022.2160p.NF.WEB-DL.x265.10bit.HDR.DDP5.1-纪录片下载

蓝鸟 发表于 2023-1-5 15:29:56 | 显示全部楼层 |阅读模式

乔琪·斯通:梦想人生4k.The.Dreamlife.of.Georgie.Stone.2022.2160p.NF.WEB-DL.x265.10bit.HDR.DDP5.1-纪 ...

乔琪·斯通:梦想人生4k.The.Dreamlife.of.Georgie.Stone.2022.2160p.NF.WEB-DL.x265.10bit.HDR.DDP5.1-纪 ...



简       介

       《乔治·斯通的梦想生活》跨越19年,讲述了澳大利亚跨性别青少年乔治·斯通帮助改变法律、确认性别、找到声音、步入成年的记忆。
梦想生活项目是一个由跨性别、性别多样性和非二元性的年轻人组成的咨询委员会开发和领导的合作故事活动,将伴随电影上映。

影片参数

乔琪·斯通:梦想人生4k.The.Dreamlife.of.Georgie.Stone.2022.2160p.NF.WEB-DL.x265.10bit.HDR.DDP5.1-纪录片信息
Video
ID : 1
Format : HEVC
Format/Info : High Efficiency Video Coding
Format profile : Main 10@L5@Main
HDR format : Dolby Vision, Version 1.0, dvhe.08.06, BL+RPU, HDR10 compatible / SMPTE ST 2086, HDR10 compatible
Codec ID : V_MPEGH/ISO/HEVC
Duration : 29 min 23 s
Bit rate : 12.1 Mb/s
Width : 3 840 pixels
Height : 2 160 pixels
Display aspect ratio : 16:9
Frame rate mode : Constant
Frame rate : 23.976 (24000/1001) FPS
Color space : YUV
Chroma subsampling : 4:2:0 (Type 2)
Bit depth : 10 bits
Bits/(Pixel*Frame) : 0.061
Stream size : 2.49 GiB (95%)
Language : English
Default : Yes
Forced : No
Color range : Limited
Color primaries : BT.2020
Transfer characteristics : PQ
Matrix coefficients : BT.2020 non-constant
Mastering display color primaries : Display P3
Mastering display luminance : min: 0.0001 cd/m2, max: 1000 cd/m2
Maximum Content Light Level : 1022 cd/m2
Maximum Frame-Average Light Level : 97 cd/m2


Audio
ID : 2
Format : E-AC-3
Format/Info : Enhanced AC-3
Commercial name : Dolby Digital Plus
Codec ID : A_EAC3
Duration : 29 min 56 s
Bit rate mode : Constant
Bit rate : 640 kb/s
Channel(s) : 6 channels
Channel layout : L R C LFE Ls Rs
Sampling rate : 48.0 kHz
Frame rate : 31.250 FPS (1536 SPF)
Compression mode : Lossy
Stream size : 137 MiB (5%)
Language : English
Service kind : Complete Main
Default : Yes
Forced : No


Text #33
ID : 35
Format : UTF-8
Codec ID : S_TEXT/UTF8
Codec ID/Info : UTF-8 Plain Text
Duration : 29 min 10 s
Bit rate : 85 b/s
Frame rate : 0.210 FPS
Count of elements : 367
Stream size : 18.3 KiB (0%)
Language : Vietnamese
Default : No
Forced : No


Text #34
ID : 36
Format : UTF-8
Codec ID : S_TEXT/UTF8
Codec ID/Info : UTF-8 Plain Text
Duration : 29 min 10 s
Bit rate : 56 b/s
Frame rate : 0.211 FPS
Count of elements : 369
Stream size : 12.2 KiB (0%)
Title : Simplified
Language : Chinese (Simplied)
Default : No
Forced : No


Text #35
ID : 37
Format : UTF-8
Codec ID : S_TEXT/UTF8
Codec ID/Info : UTF-8 Plain Text
Duration : 29 min 10 s
Bit rate : 59 b/s
Frame rate : 0.213 FPS
Count of elements : 372
Stream size : 12.6 KiB (0%)
Title : Traditional
Language : Chinese (Traditional)
Default : No
Forced : No


Menu
00:28:09.000 : en:End Credits

蓝光高清网提示您 点击下方附件名称 即可开始下载

多版本下载时请注意区分

乔琪·斯通:梦想人生4k.The.Dreamlife.of.Georgie.Stone.2022.2160p.NF.WEB-DL.x265.10bit.HDR.DDP5.1-纪录片下载

乔琪·斯通:梦想人生4k.The.Dreamlife.of.Georgie.Stone.2022.2160p.NF.WEB-DL.x265.10bit.HDR.DDP5.1-简繁中字【2.63 GB】

The.Dreamlife.of.Georgie.Stone.2022.2160p.NF.WEB-DL.x265.10bit.HDR.DDP5.1-COPiUM.torrent ( 26.96 KB )



乔琪·斯通:梦想人生4k.The.Dreamlife.of.Georgie.Stone.2022.2160p.NF.WEB-DL.x265.10bit.SDR.DDP5.1-简繁中字【2.57 GB】

The.Dreamlife.of.Georgie.Stone.2022.2160p.NF.WEB-DL.x265.10bit.SDR.DDP5.1-COPiUM.torrent ( 26.39 KB )



乔琪·斯通:梦想人生4k.The.Dreamlife.of.Georgie.Stone.2022.2160p.NF.WEB-DL.DDP5.1.DV.MP4.x265-简繁中字【杜比视界】【3.41 GB】

The.Dreamlife.of.Georgie.Stone.2022.2160p.NF.WEB-DL.DDP5.1.DV.MP4.x265-DVSUX.torrent ( 17.7 KB )



乔琪·斯通:梦想人生4k.The.Dreamlife.of.Georgie.Stone.2022.2160p.NF.WEB-DL.DDP5.1.DV.MKV.x265-简繁中字【杜比视界】【3.41 GB】

The.Dreamlife.of.Georgie.Stone.2022.2160p.NF.WEB-DL.DDP5.1.DV.MKV.x265-COPiUM.torrent ( 17.7 KB )



来源: 乔琪·斯通:梦想人生4k.The.Dreamlife.of.Georgie.Stone.2022.2160p.NF.WEB-DL.x265.10bit.HDR.DDP5.1-纪录片下载
加入蓝光高清网VIP会员  无限制下载本站所有资源---点这里

资源下载、资源播放、字幕使用、无法下载等常见问题---点这里
回复

使用道具 举报

全部回复0 显示全部楼层

发表回复

您需要登录后才可以回帖 登录 | 立即注册

本版积分规则