本站已运行

蓝光高清网

搜索
开启左侧

[专题系列纪录片] 突袭之后4k.After.the.Raid.2019.SPANISH.2160p.NF.WEB-DL.x265.10bit.SDR.DDP5.1-纪录片下载

蓝鸟 发表于 2023-1-5 15:39:36 | 显示全部楼层 |阅读模式

突袭之后4k.After.the.Raid.2019.SPANISH.2160p.NF.WEB-DL.x265.10bit.SDR.DDP5.1-纪录片下载

突袭之后4k.After.the.Raid.2019.SPANISH.2160p.NF.WEB-DL.x265.10bit.SDR.DDP5.1-纪录片下载



简       介

  小镇遭遇了一场针对移民的大规模突击检查,这不仅严重影响了镇民们的情绪,还让这些常去教会的人们开始思考一个复杂的问题:爱你的邻居究竟意味着什么。

影片参数
突袭之后4k.After.the.Raid.2019.SPANISH.2160p.NF.WEB-DL.x265.10bit.SDR.DDP5.1-纪录片信息
Video
ID : 1
Format : HEVC
Format/Info : High Efficiency Video Coding
Format profile : Main 10@L5@Main
Codec ID : V_MPEGH/ISO/HEVC
Duration : 25 min 7 s
Bit rate : 11.1 Mb/s
Width : 3 840 pixels
Height : 2 160 pixels
Display aspect ratio : 16:9
Frame rate mode : Constant
Frame rate : 23.976 (24000/1001) FPS
Color space : YUV
Chroma subsampling : 4:2:0
Bit depth : 10 bits
Bits/(Pixel*Frame) : 0.056
Stream size : 1.94 GiB (94%)
Language : Spanish
Default : Yes
Forced : No
Color range : Limited
Color primaries : BT.709
Transfer characteristics : BT.709
Matrix coefficients : BT.709


Audio
ID : 2
Format : E-AC-3
Format/Info : Enhanced AC-3
Commercial name : Dolby Digital Plus
Codec ID : A_EAC3
Duration : 25 min 8 s
Bit rate mode : Constant
Bit rate : 640 kb/s
Channel(s) : 6 channels
Channel layout : L R C LFE Ls Rs
Sampling rate : 48.0 kHz
Frame rate : 31.250 FPS (1536 SPF)
Compression mode : Lossy
Stream size : 115 MiB (5%)
Title : Latin American
Language : Spanish (Latin America)
Service kind : Complete Main
Default : Yes
Forced : No




Text #21
ID : 23
Format : UTF-8
Codec ID : S_TEXT/UTF8
Codec ID/Info : UTF-8 Plain Text
Duration : 24 min 28 s
Bit rate : 54 b/s
Frame rate : 0.181 FPS
Count of elements : 266
Stream size : 9.78 KiB (0%)
Title : Brazilian
Language : Portuguese (BR)
Default : No
Forced : No


Text #22
ID : 24
Format : UTF-8
Codec ID : S_TEXT/UTF8
Codec ID/Info : UTF-8 Plain Text
Duration : 21 min 54 s
Bit rate : 61 b/s
Frame rate : 0.196 FPS
Count of elements : 258
Stream size : 9.82 KiB (0%)
Language : Portuguese (PT)
Default : No
Forced : No


Text #23
ID : 25
Format : UTF-8
Codec ID : S_TEXT/UTF8
Codec ID/Info : UTF-8 Plain Text
Duration : 24 min 28 s
Bit rate : 60 b/s
Frame rate : 0.170 FPS
Count of elements : 249
Stream size : 10.9 KiB (0%)
Language : Romanian
Default : No
Forced : No


Text #24
ID : 26
Format : UTF-8
Codec ID : S_TEXT/UTF8
Codec ID/Info : UTF-8 Plain Text
Duration : 24 min 25 s
Bit rate : 86 b/s
Frame rate : 0.179 FPS
Count of elements : 262
Stream size : 15.5 KiB (0%)
Language : Russian
Default : No
Forced : No


Text #25
ID : 27
Format : UTF-8
Codec ID : S_TEXT/UTF8
Codec ID/Info : UTF-8 Plain Text
Duration : 21 min 54 s
Bit rate : 57 b/s
Frame rate : 0.161 FPS
Count of elements : 212
Stream size : 9.21 KiB (0%)
Language : Swedish
Default : No
Forced : No


Text #26
ID : 28
Format : UTF-8
Codec ID : S_TEXT/UTF8
Codec ID/Info : UTF-8 Plain Text
Duration : 24 min 28 s
Bit rate : 139 b/s
Frame rate : 0.183 FPS
Count of elements : 268
Stream size : 25.0 KiB (0%)
Language : Thai
Default : No
Forced : No


Text #27
ID : 29
Format : UTF-8
Codec ID : S_TEXT/UTF8
Codec ID/Info : UTF-8 Plain Text
Duration : 24 min 28 s
Bit rate : 50 b/s
Frame rate : 0.170 FPS
Count of elements : 250
Stream size : 9.11 KiB (0%)
Language : Turkish
Default : No
Forced : No


Text #28
ID : 30
Format : UTF-8
Codec ID : S_TEXT/UTF8
Codec ID/Info : UTF-8 Plain Text
Duration : 24 min 24 s
Bit rate : 81 b/s
Frame rate : 0.182 FPS
Count of elements : 267
Stream size : 14.6 KiB (0%)
Language : Vietnamese
Default : No
Forced : No


Text #29
ID : 31
Format : UTF-8
Codec ID : S_TEXT/UTF8
Codec ID/Info : UTF-8 Plain Text
Duration : 24 min 28 s
Bit rate : 50 b/s
Frame rate : 0.173 FPS
Count of elements : 254
Stream size : 9.07 KiB (0%)
Title : Simplified
Language : Chinese (Simplied)
Default : No
Forced : No


Text #30
ID : 32
Format : UTF-8
Codec ID : S_TEXT/UTF8
Codec ID/Info : UTF-8 Plain Text
Duration : 24 min 28 s
Bit rate : 48 b/s
Frame rate : 0.183 FPS
Count of elements : 268
Stream size : 8.73 KiB (0%)
Title : Traditional
Language : Chinese (Traditional)
Default : No
Forced : No


Menu
00:22:12.000 : en:End Credits

蓝光高清网提示您 点击下方附件名称 即可开始下载

突袭之后4k.After.the.Raid.2019.SPANISH.2160p.NF.WEB-DL.x265.10bit.SDR.DDP5.1-纪录片下载

突袭之后4k.After.the.Raid.2019.SPANISH.2160p.NF.WEB-DL.x265.10bit.SDR.DDP5.1-简繁中字【2.06 GB】

After.the.Raid.2019.SPANISH.2160p.NF.WEB-DL.x265.10bit.SDR.DDP5.1-NewYear.torrent ( 21.23 KB )



来源: 突袭之后4k.After.the.Raid.2019.SPANISH.2160p.NF.WEB-DL.x265.10bit.SDR.DDP5.1-纪录片下载
加入蓝光高清网VIP会员  无限制下载本站所有资源---点这里

资源下载、资源播放、字幕使用、无法下载等常见问题---点这里
回复

使用道具 举报

全部回复0 显示全部楼层

发表回复

您需要登录后才可以回帖 登录 | 立即注册

本版积分规则