本站已运行

蓝光高清网

搜索
开启左侧

[美国] 肖恩·门德斯:巡回演唱会纪实[中文字幕].Shawn.Mendes.Live.in.Concert.2020.2160p.NF.WEB-DL.x265.10bit.HDR.DDP5.1.Atmos-ENDISNEAR 4k演唱会下载

蓝鸟 发表于 2023-1-5 16:14:31 | 显示全部楼层 |阅读模式

肖恩·门德斯:巡回演唱会纪实[中文字幕].Shawn.Mendes.Live.in.Concert.2020.2160p.NF.WEB-DL.x265.10bit. ...

肖恩·门德斯:巡回演唱会纪实[中文字幕].Shawn.Mendes.Live.in.Concert.2020.2160p.NF.WEB-DL.x265.10bit. ...




简  介


  Netfilx于11月25日上线Shawn Mendes: The Tour在多伦多罗杰斯中心的演唱会纪实。

影片参数
Video
ID                                       : 1
Format                                   : HEVC
Format/Info                              : High Efficiency Video Coding
Format profile                           : Main 10@L5@Main
HDR format                               : Dolby Vision, Version 1.0, dvhe.08.06, BL+RPU, HDR10 compatible / SMPTE ST 2086, HDR10 compatible
Codec ID                                 : V_MPEGH/ISO/HEVC
Duration                                 : 1 h 27 min
Bit rate                                 : 16.2 Mb/s
Width                                    : 3 840 pixels
Height                                   : 2 160 pixels
Display aspect ratio                     : 16:9
Frame rate mode                          : Constant
Frame rate                               : 23.976 (24000/1001) FPS
Color space                              : YUV
Chroma subsampling                       : 4:2:0 (Type 2)
Bit depth                                : 10 bits
Bits/(Pixel*Frame)                       : 0.081
Stream size                              : 9.84 GiB (95%)
Language                                 : English
Default                                  : Yes
Forced                                   : No
Color range                              : Limited
Color primaries                          : BT.2020
Transfer characteristics                 : PQ
Matrix coefficients                      : BT.2020 non-constant
Mastering display color primaries        : Display P3
Mastering display luminance              : min: 0.0001 cd/m2, max: 1000 cd/m2
Maximum Content Light Level              : 1218 cd/m2
Maximum Frame-Average Light Level        : 172 cd/m2
Audio
ID                                       : 2
Format                                   : E-AC-3 JOC
Format/Info                              : Enhanced AC-3 with Joint Object Coding
Commercial name                          : Dolby Digital Plus with Dolby Atmos
Codec ID                                 : A_EAC3
Duration                                 : 1 h 27 min
Bit rate mode                            : Constant
Bit rate                                 : 768 kb/s
Channel(s)                               : 6 channels
Channel layout                           : L R C LFE Ls Rs
Sampling rate                            : 48.0 kHz
Frame rate                               : 31.250 FPS (1536 SPF)
Compression mode                         : Lossy
Stream size                              : 478 MiB (5%)
Language                                 : English
Service kind                             : Complete Main
Default                                  : Yes
Forced                                   : No
Complexity index                         : 16
Number of dynamic objects                : 15
Bed channel count                        : 1 channel
Bed channel configuration                : LFE
Text #1
ID                                       : 3
Format                                   : UTF-8
Codec ID                                 : S_TEXT/UTF8
Codec ID/Info                            : UTF-8 Plain Text
Duration                                 : 1 h 22 min
Bit rate                                 : 9 b/s
Frame rate                               : 0.048 FPS
Count of elements                        : 234
Stream size                              : 5.63 KiB (0%)
Language                                 : English
Default                                  : No
Forced                                   : No
Text #2
ID                                       : 4
Format                                   : UTF-8
Codec ID                                 : S_TEXT/UTF8
Codec ID/Info                            : UTF-8 Plain Text
Duration                                 : 1 h 24 min
Bit rate                                 : 80 b/s
Frame rate                               : 0.236 FPS
Count of elements                        : 1195
Stream size                              : 49.8 KiB (0%)
Title                                    : SDH
Language                                 : English
Default                                  : No
Forced                                   : No
Text #3
ID                                       : 5
Format                                   : UTF-8
Codec ID                                 : S_TEXT/UTF8
Codec ID/Info                            : UTF-8 Plain Text
Duration                                 : 1 h 26 min
Bit rate                                 : 17 b/s
Frame rate                               : 0.053 FPS
Count of elements                        : 273
Stream size                              : 11.2 KiB (0%)
Language                                 : Arabic
Default                                  : No
Forced                                   : No
Text #4
ID                                       : 6
Format                                   : UTF-8
Codec ID                                 : S_TEXT/UTF8
Codec ID/Info                            : UTF-8 Plain Text
Duration                                 : 1 h 26 min
Bit rate                                 : 8 b/s
Frame rate                               : 0.054 FPS
Count of elements                        : 280
Stream size                              : 5.53 KiB (0%)
Language                                 : Czech
Default                                  : No
Forced                                   : No
Text #5
ID                                       : 7
Format                                   : UTF-8
Codec ID                                 : S_TEXT/UTF8
Codec ID/Info                            : UTF-8 Plain Text
Duration                                 : 1 h 26 min
Bit rate                                 : 7 b/s
Frame rate                               : 0.042 FPS
Count of elements                        : 217
Stream size                              : 4.62 KiB (0%)
Language                                 : Danish
Default                                  : No
Forced                                   : No
Text #6
ID                                       : 8
Format                                   : UTF-8
Codec ID                                 : S_TEXT/UTF8
Codec ID/Info                            : UTF-8 Plain Text
Duration                                 : 1 h 26 min
Bit rate                                 : 6 b/s
Frame rate                               : 0.045 FPS
Count of elements                        : 236
Stream size                              : 4.43 KiB (0%)
Language                                 : German
Default                                  : No
Forced                                   : No
Text #7
ID                                       : 9
Format                                   : UTF-8
Codec ID                                 : S_TEXT/UTF8
Codec ID/Info                            : UTF-8 Plain Text
Duration                                 : 1 h 26 min
Bit rate                                 : 14 b/s
Frame rate                               : 0.052 FPS
Count of elements                        : 271
Stream size                              : 9.34 KiB (0%)
Language                                 : Greek
Default                                  : No
Forced                                   : No
Text #8
ID                                       : 10
Format                                   : UTF-8
Codec ID                                 : S_TEXT/UTF8
Codec ID/Info                            : UTF-8 Plain Text
Duration                                 : 1 h 26 min
Bit rate                                 : 8 b/s
Frame rate                               : 0.047 FPS
Count of elements                        : 245
Stream size                              : 5.11 KiB (0%)
Title                                    : Latin American
Language                                 : Spanish (Latin America)
Default                                  : No
Forced                                   : No
Text #9
ID                                       : 11
Format                                   : UTF-8
Codec ID                                 : S_TEXT/UTF8
Codec ID/Info                            : UTF-8 Plain Text
Duration                                 : 1 h 26 min
Bit rate                                 : 8 b/s
Frame rate                               : 0.048 FPS
Count of elements                        : 248
Stream size                              : 5.35 KiB (0%)
Language                                 : Spanish (ES)
Default                                  : No
Forced                                   : No
Text #10
ID                                       : 12
Format                                   : UTF-8
Codec ID                                 : S_TEXT/UTF8
Codec ID/Info                            : UTF-8 Plain Text
Duration                                 : 1 h 26 min
Bit rate                                 : 7 b/s
Frame rate                               : 0.043 FPS
Count of elements                        : 221
Stream size                              : 4.80 KiB (0%)
Language                                 : Finnish
Default                                  : No
Forced                                   : No
Text #11
ID                                       : 13
Format                                   : UTF-8
Codec ID                                 : S_TEXT/UTF8
Codec ID/Info                            : UTF-8 Plain Text
Duration                                 : 1 h 26 min
Bit rate                                 : 7 b/s
Frame rate                               : 0.043 FPS
Count of elements                        : 223
Stream size                              : 4.83 KiB (0%)
Language                                 : French
Default                                  : No
Forced                                   : No
Text #12
ID                                       : 14
Format                                   : UTF-8
Codec ID                                 : S_TEXT/UTF8
Codec ID/Info                            : UTF-8 Plain Text
Duration                                 : 1 h 26 min
Bit rate                                 : 16 b/s
Frame rate                               : 0.052 FPS
Count of elements                        : 269
Stream size                              : 10.4 KiB (0%)
Language                                 : Hebrew
Default                                  : No
Forced                                   : No
Text #13
ID                                       : 15
Format                                   : UTF-8
Codec ID                                 : S_TEXT/UTF8
Codec ID/Info                            : UTF-8 Plain Text
Duration                                 : 1 h 26 min
Bit rate                                 : 7 b/s
Frame rate                               : 0.045 FPS
Count of elements                        : 231
Stream size                              : 4.47 KiB (0%)
Language                                 : Croatian
Default                                  : No
Forced                                   : No
Text #14
ID                                       : 16
Format                                   : UTF-8
Codec ID                                 : S_TEXT/UTF8
Codec ID/Info                            : UTF-8 Plain Text
Duration                                 : 1 h 26 min
Bit rate                                 : 8 b/s
Frame rate                               : 0.045 FPS
Count of elements                        : 232
Stream size                              : 5.63 KiB (0%)
Language                                 : Hungarian
Default                                  : No
Forced                                   : No
Text #15
ID                                       : 17
Format                                   : UTF-8
Codec ID                                 : S_TEXT/UTF8
Codec ID/Info                            : UTF-8 Plain Text
Duration                                 : 1 h 26 min
Bit rate                                 : 9 b/s
Frame rate                               : 0.046 FPS
Count of elements                        : 241
Stream size                              : 5.74 KiB (0%)
Language                                 : Indonesian
Default                                  : No
Forced                                   : No
Text #16
ID                                       : 18
Format                                   : UTF-8
Codec ID                                 : S_TEXT/UTF8
Codec ID/Info                            : UTF-8 Plain Text
Duration                                 : 1 h 26 min
Bit rate                                 : 8 b/s
Frame rate                               : 0.053 FPS
Count of elements                        : 274
Stream size                              : 5.22 KiB (0%)
Language                                 : Italian
Default                                  : No
Forced                                   : No
Text #17
ID                                       : 19
Format                                   : UTF-8
Codec ID                                 : S_TEXT/UTF8
Codec ID/Info                            : UTF-8 Plain Text
Duration                                 : 1 h 26 min
Bit rate                                 : 11 b/s
Frame rate                               : 0.050 FPS
Count of elements                        : 258
Stream size                              : 7.52 KiB (0%)
Language                                 : Japanese
Default                                  : No
Forced                                   : No
Text #18
ID                                       : 20
Format                                   : UTF-8
Codec ID                                 : S_TEXT/UTF8
Codec ID/Info                            : UTF-8 Plain Text
Duration                                 : 1 h 26 min
Bit rate                                 : 12 b/s
Frame rate                               : 0.055 FPS
Count of elements                        : 284
Stream size                              : 8.02 KiB (0%)
Language                                 : Korean
Default                                  : No
Forced                                   : No
Text #19
ID                                       : 21
Format                                   : UTF-8
Codec ID                                 : S_TEXT/UTF8
Codec ID/Info                            : UTF-8 Plain Text
Duration                                 : 1 h 26 min
Bit rate                                 : 7 b/s
Frame rate                               : 0.042 FPS
Count of elements                        : 218
Stream size                              : 4.57 KiB (0%)
Language                                 : Malay
Default                                  : No
Forced                                   : No
Text #20
ID                                       : 22
Format                                   : UTF-8
Codec ID                                 : S_TEXT/UTF8
Codec ID/Info                            : UTF-8 Plain Text
Duration                                 : 1 h 26 min
Bit rate                                 : 6 b/s
Frame rate                               : 0.042 FPS
Count of elements                        : 217
Stream size                              : 4.41 KiB (0%)
Language                                 : Norwegian Bokmal
Default                                  : No
Forced                                   : No
Text #21
ID                                       : 23
Format                                   : UTF-8
Codec ID                                 : S_TEXT/UTF8
Codec ID/Info                            : UTF-8 Plain Text
Duration                                 : 1 h 26 min
Bit rate                                 : 6 b/s
Frame rate                               : 0.030 FPS
Count of elements                        : 155
Stream size                              : 4.12 KiB (0%)
Language                                 : Dutch
Default                                  : No
Forced                                   : No
Text #22
ID                                       : 24
Format                                   : UTF-8
Codec ID                                 : S_TEXT/UTF8
Codec ID/Info                            : UTF-8 Plain Text
Duration                                 : 1 h 26 min
Bit rate                                 : 7 b/s
Frame rate                               : 0.045 FPS
Count of elements                        : 236
Stream size                              : 4.90 KiB (0%)
Language                                 : Polish
Default                                  : No
Forced                                   : No
Text #23
ID                                       : 25
Format                                   : UTF-8
Codec ID                                 : S_TEXT/UTF8
Codec ID/Info                            : UTF-8 Plain Text
Duration                                 : 1 h 26 min
Bit rate                                 : 7 b/s
Frame rate                               : 0.045 FPS
Count of elements                        : 232
Stream size                              : 4.96 KiB (0%)
Title                                    : Brazilian
Language                                 : Portuguese (BR)
Default                                  : No
Forced                                   : No
Text #24
ID                                       : 26
Format                                   : UTF-8
Codec ID                                 : S_TEXT/UTF8
Codec ID/Info                            : UTF-8 Plain Text
Duration                                 : 1 h 26 min
Bit rate                                 : 7 b/s
Frame rate                               : 0.044 FPS
Count of elements                        : 230
Stream size                              : 4.93 KiB (0%)
Language                                 : Portuguese (PT)
Default                                  : No
Forced                                   : No
Text #25
ID                                       : 27
Format                                   : UTF-8
Codec ID                                 : S_TEXT/UTF8
Codec ID/Info                            : UTF-8 Plain Text
Duration                                 : 1 h 26 min
Bit rate                                 : 8 b/s
Frame rate                               : 0.043 FPS
Count of elements                        : 224
Stream size                              : 5.50 KiB (0%)
Language                                 : Romanian
Default                                  : No
Forced                                   : No
Text #26
ID                                       : 28
Format                                   : UTF-8
Codec ID                                 : S_TEXT/UTF8
Codec ID/Info                            : UTF-8 Plain Text
Duration                                 : 1 h 26 min
Bit rate                                 : 14 b/s
Frame rate                               : 0.053 FPS
Count of elements                        : 275
Stream size                              : 9.27 KiB (0%)
Language                                 : Russian
Default                                  : No
Forced                                   : No
Text #27
ID                                       : 29
Format                                   : UTF-8
Codec ID                                 : S_TEXT/UTF8
Codec ID/Info                            : UTF-8 Plain Text
Duration                                 : 1 h 26 min
Bit rate                                 : 7 b/s
Frame rate                               : 0.041 FPS
Count of elements                        : 212
Stream size                              : 4.44 KiB (0%)
Language                                 : Swedish
Default                                  : No
Forced                                   : No
Text #28
ID                                       : 30
Format                                   : UTF-8
Codec ID                                 : S_TEXT/UTF8
Codec ID/Info                            : UTF-8 Plain Text
Duration                                 : 1 h 26 min
Bit rate                                 : 26 b/s
Frame rate                               : 0.053 FPS
Count of elements                        : 277
Stream size                              : 16.5 KiB (0%)
Language                                 : Thai
Default                                  : No
Forced                                   : No
Text #29
ID                                       : 31
Format                                   : UTF-8
Codec ID                                 : S_TEXT/UTF8
Codec ID/Info                            : UTF-8 Plain Text
Duration                                 : 1 h 26 min
Bit rate                                 : 8 b/s
Frame rate                               : 0.043 FPS
Count of elements                        : 222
Stream size                              : 5.23 KiB (0%)
Language                                 : Turkish
Default                                  : No
Forced                                   : No
Text #30
ID                                       : 32
Format                                   : UTF-8
Codec ID                                 : S_TEXT/UTF8
Codec ID/Info                            : UTF-8 Plain Text
Duration                                 : 1 h 26 min
Bit rate                                 : 15 b/s
Frame rate                               : 0.052 FPS
Count of elements                        : 269
Stream size                              : 9.52 KiB (0%)
Language                                 : Ukrainian
Default                                  : No
Forced                                   : No
Text #31
ID                                       : 33
Format                                   : UTF-8
Codec ID                                 : S_TEXT/UTF8
Codec ID/Info                            : UTF-8 Plain Text
Duration                                 : 1 h 26 min
Bit rate                                 : 11 b/s
Frame rate                               : 0.042 FPS
Count of elements                        : 216
Stream size                              : 7.55 KiB (0%)
Language                                 : Vietnamese
Default                                  : No
Forced                                   : No
Text #32
ID                                       : 34
Format                                   : UTF-8
Codec ID                                 : S_TEXT/UTF8
Codec ID/Info                            : UTF-8 Plain Text
Duration                                 : 1 h 26 min
Bit rate                                 : 11 b/s
Frame rate                               : 0.054 FPS
Count of elements                        : 278
Stream size                              : 7.31 KiB (0%)
Title                                    : Simplified
Language                                 : Chinese (Simplied)
Default                                  : No
Forced                                   : No
Text #33
ID                                       : 35
Format                                   : UTF-8
Codec ID                                 : S_TEXT/UTF8
Codec ID/Info                            : UTF-8 Plain Text
Duration                                 : 1 h 26 min
Bit rate                                 : 11 b/s
Frame rate                               : 0.055 FPS
Count of elements                        : 284
Stream size                              : 7.14 KiB (0%)
Title                                    : Traditional
Language                                 : Chinese (Traditional)
Default                                  : No
Forced                                   : No
Menu
01:26:44.000                             : en:End Credits

蓝光高清网提示您 点击下方附件名称 即可开始下载

肖恩·门德斯:巡回演唱会纪实[中文字幕].Shawn.Mendes.Live.in.Concert.2020.2160p.NF.WEB-DL.x265.10bit.HDR.DDP5.1.Atmos-ENDISNEAR 4k演唱会下载

肖恩·门德斯:巡回演唱会纪实[中文字幕].Shawn.Mendes.Live.in.Concert.2020.2160p.NF.WEB-DL.x265.10bit.HDR.DDP5.1.Atmos-ENDISNEAR 10.30GB

Shawn.Mendes.Live.in.Concert.2020.2160p.NF.WEB-DL.x265.10bit.HDR.DDP5.1.Atmos-EN.torrent ( 13.58 KB )



来源: 肖恩·门德斯:巡回演唱会纪实[中文字幕].Shawn.Mendes.Live.in.Concert.2020.2160p.NF.WEB-DL.x265.10bit.HDR.DDP5.1.Atmos-ENDISNEAR 4k演唱会下载
加入蓝光高清网VIP会员  无限制下载本站所有资源---点这里

资源下载、资源播放、字幕使用、无法下载等常见问题---点这里
回复

使用道具 举报

全部回复0 显示全部楼层

发表回复

您需要登录后才可以回帖 登录 | 立即注册

本版积分规则