本站已运行

蓝光高清网

搜索
开启左侧

[体育竞技专题] 体坛秘史:AND1的兴衰[中文字幕].Untold.The.Rise.and.Fall.of.AND1.2022.2160p.NF.WEB-DL.x265.10bit.SDR.DDP5.1-COPiUM 4k电影下载

蓝鸟 发表于 2023-1-5 16:39:51 | 显示全部楼层 |阅读模式

体坛秘史:AND1的兴衰[中文字幕].Untold.The.Rise.and.Fall.of.AND1.2022.2160p.NF.WEB-DL.x265.10bit.SDR. ...

体坛秘史:AND1的兴衰[中文字幕].Untold.The.Rise.and.Fall.of.AND1.2022.2160p.NF.WEB-DL.x265.10bit.SDR. ...




简  介


  灵感来自于纽约街头篮球的品牌AND1曾颇具影响力,让当地街球传奇人物成为了国际巨星·,但它为什么会走向衰弱呢?

影片参数
Video
ID                                       : 1
Format                                   : HEVC
Format/Info                              : High Efficiency Video Coding
Format profile                           : Main 10@L5@Main
HDR format                               : Dolby Vision, Version 1.0, dvhe.08.06, BL+RPU, HDR10 compatible / SMPTE ST 2086, HDR10 compatible
Codec ID                                 : V_MPEGH/ISO/HEVC
Duration                                 : 1 h 8 min
Bit rate                                 : 18.2 Mb/s
Width                                    : 3 840 pixels
Height                                   : 2 160 pixels
Display aspect ratio                     : 16:9
Frame rate mode                          : Constant
Frame rate                               : 23.976 (24000/1001) FPS
Color space                              : YUV
Chroma subsampling                       : 4:2:0 (Type 2)
Bit depth                                : 10 bits
Bits/(Pixel*Frame)                       : 0.091
Stream size                              : 8.71 GiB (97%)
Language                                 : English
Default                                  : Yes
Forced                                   : No
Color range                              : Limited
Color primaries                          : BT.2020
Transfer characteristics                 : PQ
Matrix coefficients                      : BT.2020 non-constant
Mastering display color primaries        : Display P3
Mastering display luminance              : min: 0.0001 cd/m2, max: 1000 cd/m2
Maximum Content Light Level              : 798 cd/m2
Maximum Frame-Average Light Level        : 149 cd/m2
Audio
ID                                       : 2
Format                                   : E-AC-3
Format/Info                              : Enhanced AC-3
Commercial name                          : Dolby Digital Plus
Codec ID                                 : A_EAC3
Duration                                 : 1 h 9 min
Bit rate mode                            : Constant
Bit rate                                 : 640 kb/s
Channel(s)                               : 6 channels
Channel layout                           : L R C LFE Ls Rs
Sampling rate                            : 48.0 kHz
Frame rate                               : 31.250 FPS (1536 SPF)
Compression mode                         : Lossy
Stream size                              : 317 MiB (3%)
Language                                 : English
Service kind                             : Complete Main
Default                                  : Yes
Forced                                   : No
Text #1
ID                                       : 3
Format                                   : UTF-8
Codec ID                                 : S_TEXT/UTF8
Codec ID/Info                            : UTF-8 Plain Text
Duration                                 : 1 h 3 min
Bit rate                                 : 10 b/s
Frame rate                               : 0.030 FPS
Count of elements                        : 116
Stream size                              : 4.91 KiB (0%)
Title                                    : Forced
Language                                 : English
Default                                  : Yes
Forced                                   : Yes
Text #2
ID                                       : 4
Format                                   : UTF-8
Codec ID                                 : S_TEXT/UTF8
Codec ID/Info                            : UTF-8 Plain Text
Duration                                 : 1 h 5 min
Bit rate                                 : 99 b/s
Frame rate                               : 0.282 FPS
Count of elements                        : 1113
Stream size                              : 48.0 KiB (0%)
Language                                 : English
Default                                  : No
Forced                                   : No
Text #3
ID                                       : 5
Format                                   : UTF-8
Codec ID                                 : S_TEXT/UTF8
Codec ID/Info                            : UTF-8 Plain Text
Duration                                 : 1 h 5 min
Bit rate                                 : 112 b/s
Frame rate                               : 0.325 FPS
Count of elements                        : 1286
Stream size                              : 54.4 KiB (0%)
Title                                    : SDH
Language                                 : English
Default                                  : No
Forced                                   : No
Text #4
ID                                       : 6
Format                                   : UTF-8
Codec ID                                 : S_TEXT/UTF8
Codec ID/Info                            : UTF-8 Plain Text
Duration                                 : 1 h 8 min
Bit rate                                 : 150 b/s
Frame rate                               : 0.281 FPS
Count of elements                        : 1147
Stream size                              : 75.1 KiB (0%)
Language                                 : Arabic
Default                                  : No
Forced                                   : No
Text #5
ID                                       : 7
Format                                   : UTF-8
Codec ID                                 : S_TEXT/UTF8
Codec ID/Info                            : UTF-8 Plain Text
Duration                                 : 1 h 8 min
Bit rate                                 : 85 b/s
Frame rate                               : 0.255 FPS
Count of elements                        : 1041
Stream size                              : 42.6 KiB (0%)
Language                                 : Czech
Default                                  : No
Forced                                   : No
Text #6
ID                                       : 8
Format                                   : UTF-8
Codec ID                                 : S_TEXT/UTF8
Codec ID/Info                            : UTF-8 Plain Text
Duration                                 : 1 h 8 min
Bit rate                                 : 79 b/s
Frame rate                               : 0.244 FPS
Count of elements                        : 996
Stream size                              : 39.7 KiB (0%)
Language                                 : Danish
Default                                  : No
Forced                                   : No
Text #7
ID                                       : 9
Format                                   : UTF-8
Codec ID                                 : S_TEXT/UTF8
Codec ID/Info                            : UTF-8 Plain Text
Duration                                 : 1 h 8 min
Bit rate                                 : 80 b/s
Frame rate                               : 0.257 FPS
Count of elements                        : 1050
Stream size                              : 40.1 KiB (0%)
Language                                 : German
Default                                  : No
Forced                                   : No
Text #8
ID                                       : 10
Format                                   : UTF-8
Codec ID                                 : S_TEXT/UTF8
Codec ID/Info                            : UTF-8 Plain Text
Duration                                 : 1 h 8 min
Bit rate                                 : 137 b/s
Frame rate                               : 0.274 FPS
Count of elements                        : 1119
Stream size                              : 68.6 KiB (0%)
Language                                 : Greek
Default                                  : No
Forced                                   : No
Text #9
ID                                       : 11
Format                                   : UTF-8
Codec ID                                 : S_TEXT/UTF8
Codec ID/Info                            : UTF-8 Plain Text
Duration                                 : 1 h 8 min
Bit rate                                 : 80 b/s
Frame rate                               : 0.263 FPS
Count of elements                        : 1074
Stream size                              : 40.3 KiB (0%)
Title                                    : Latin American
Language                                 : Spanish (Latin America)
Default                                  : No
Forced                                   : No
Text #10
ID                                       : 12
Format                                   : UTF-8
Codec ID                                 : S_TEXT/UTF8
Codec ID/Info                            : UTF-8 Plain Text
Duration                                 : 1 h 8 min
Bit rate                                 : 77 b/s
Frame rate                               : 0.302 FPS
Count of elements                        : 1235
Stream size                              : 38.6 KiB (0%)
Language                                 : Spanish (ES)
Default                                  : No
Forced                                   : No
Text #11
ID                                       : 13
Format                                   : UTF-8
Codec ID                                 : S_TEXT/UTF8
Codec ID/Info                            : UTF-8 Plain Text
Duration                                 : 1 h 8 min
Bit rate                                 : 79 b/s
Frame rate                               : 0.228 FPS
Count of elements                        : 931
Stream size                              : 39.5 KiB (0%)
Language                                 : Finnish
Default                                  : No
Forced                                   : No
Text #12
ID                                       : 14
Format                                   : UTF-8
Codec ID                                 : S_TEXT/UTF8
Codec ID/Info                            : UTF-8 Plain Text
Duration                                 : 1 h 8 min
Bit rate                                 : 84 b/s
Frame rate                               : 0.270 FPS
Count of elements                        : 1105
Stream size                              : 42.3 KiB (0%)
Language                                 : French
Default                                  : No
Forced                                   : No
Text #13
ID                                       : 15
Format                                   : UTF-8
Codec ID                                 : S_TEXT/UTF8
Codec ID/Info                            : UTF-8 Plain Text
Duration                                 : 1 h 8 min
Bit rate                                 : 141 b/s
Frame rate                               : 0.260 FPS
Count of elements                        : 1062
Stream size                              : 70.6 KiB (0%)
Language                                 : Hebrew
Default                                  : No
Forced                                   : No
Text #14
ID                                       : 16
Format                                   : UTF-8
Codec ID                                 : S_TEXT/UTF8
Codec ID/Info                            : UTF-8 Plain Text
Duration                                 : 1 h 8 min
Bit rate                                 : 86 b/s
Frame rate                               : 0.271 FPS
Count of elements                        : 1106
Stream size                              : 43.1 KiB (0%)
Language                                 : Croatian
Default                                  : No
Forced                                   : No
Text #15
ID                                       : 17
Format                                   : UTF-8
Codec ID                                 : S_TEXT/UTF8
Codec ID/Info                            : UTF-8 Plain Text
Duration                                 : 1 h 8 min
Bit rate                                 : 92 b/s
Frame rate                               : 0.240 FPS
Count of elements                        : 982
Stream size                              : 46.1 KiB (0%)
Language                                 : Hungarian
Default                                  : No
Forced                                   : No
Text #16
ID                                       : 18
Format                                   : UTF-8
Codec ID                                 : S_TEXT/UTF8
Codec ID/Info                            : UTF-8 Plain Text
Duration                                 : 1 h 8 min
Bit rate                                 : 88 b/s
Frame rate                               : 0.272 FPS
Count of elements                        : 1111
Stream size                              : 44.4 KiB (0%)
Language                                 : Indonesian
Default                                  : No
Forced                                   : No
Text #17
ID                                       : 19
Format                                   : UTF-8
Codec ID                                 : S_TEXT/UTF8
Codec ID/Info                            : UTF-8 Plain Text
Duration                                 : 1 h 7 min
Bit rate                                 : 81 b/s
Frame rate                               : 0.259 FPS
Count of elements                        : 1055
Stream size                              : 40.7 KiB (0%)
Language                                 : Italian
Default                                  : No
Forced                                   : No
Text #18
ID                                       : 20
Format                                   : UTF-8
Codec ID                                 : S_TEXT/UTF8
Codec ID/Info                            : UTF-8 Plain Text
Duration                                 : 1 h 8 min
Bit rate                                 : 102 b/s
Frame rate                               : 0.270 FPS
Count of elements                        : 1104
Stream size                              : 51.1 KiB (0%)
Language                                 : Japanese
Default                                  : No
Forced                                   : No
Text #19
ID                                       : 21
Format                                   : UTF-8
Codec ID                                 : S_TEXT/UTF8
Codec ID/Info                            : UTF-8 Plain Text
Duration                                 : 1 h 8 min
Bit rate                                 : 117 b/s
Frame rate                               : 0.286 FPS
Count of elements                        : 1166
Stream size                              : 58.7 KiB (0%)
Language                                 : Korean
Default                                  : No
Forced                                   : No
Text #20
ID                                       : 22
Format                                   : UTF-8
Codec ID                                 : S_TEXT/UTF8
Codec ID/Info                            : UTF-8 Plain Text
Duration                                 : 1 h 8 min
Bit rate                                 : 77 b/s
Frame rate                               : 0.265 FPS
Count of elements                        : 1083
Stream size                              : 38.6 KiB (0%)
Language                                 : Malay
Default                                  : No
Forced                                   : No
Text #21
ID                                       : 23
Format                                   : UTF-8
Codec ID                                 : S_TEXT/UTF8
Codec ID/Info                            : UTF-8 Plain Text
Duration                                 : 1 h 8 min
Bit rate                                 : 80 b/s
Frame rate                               : 0.221 FPS
Count of elements                        : 901
Stream size                              : 40.0 KiB (0%)
Language                                 : Norwegian Bokmal
Default                                  : No
Forced                                   : No
Text #22
ID                                       : 24
Format                                   : UTF-8
Codec ID                                 : S_TEXT/UTF8
Codec ID/Info                            : UTF-8 Plain Text
Duration                                 : 1 h 8 min
Bit rate                                 : 71 b/s
Frame rate                               : 0.240 FPS
Count of elements                        : 982
Stream size                              : 35.9 KiB (0%)
Language                                 : Dutch
Default                                  : No
Forced                                   : No
Text #23
ID                                       : 25
Format                                   : UTF-8
Codec ID                                 : S_TEXT/UTF8
Codec ID/Info                            : UTF-8 Plain Text
Duration                                 : 1 h 8 min
Bit rate                                 : 79 b/s
Frame rate                               : 0.269 FPS
Count of elements                        : 1099
Stream size                              : 39.5 KiB (0%)
Language                                 : Polish
Default                                  : No
Forced                                   : No
Text #24
ID                                       : 26
Format                                   : UTF-8
Codec ID                                 : S_TEXT/UTF8
Codec ID/Info                            : UTF-8 Plain Text
Duration                                 : 1 h 8 min
Bit rate                                 : 84 b/s
Frame rate                               : 0.275 FPS
Count of elements                        : 1124
Stream size                              : 42.4 KiB (0%)
Title                                    : Brazilian
Language                                 : Portuguese (BR)
Default                                  : No
Forced                                   : No
Text #25
ID                                       : 27
Format                                   : UTF-8
Codec ID                                 : S_TEXT/UTF8
Codec ID/Info                            : UTF-8 Plain Text
Duration                                 : 1 h 8 min
Bit rate                                 : 86 b/s
Frame rate                               : 0.255 FPS
Count of elements                        : 1041
Stream size                              : 42.9 KiB (0%)
Language                                 : Portuguese (PT)
Default                                  : No
Forced                                   : No
Text #26
ID                                       : 28
Format                                   : UTF-8
Codec ID                                 : S_TEXT/UTF8
Codec ID/Info                            : UTF-8 Plain Text
Duration                                 : 1 h 8 min
Bit rate                                 : 98 b/s
Frame rate                               : 0.265 FPS
Count of elements                        : 1085
Stream size                              : 49.2 KiB (0%)
Language                                 : Romanian
Default                                  : No
Forced                                   : No
Text #27
ID                                       : 29
Format                                   : UTF-8
Codec ID                                 : S_TEXT/UTF8
Codec ID/Info                            : UTF-8 Plain Text
Duration                                 : 1 h 8 min
Bit rate                                 : 132 b/s
Frame rate                               : 0.276 FPS
Count of elements                        : 1129
Stream size                              : 66.2 KiB (0%)
Language                                 : Russian
Default                                  : No
Forced                                   : No
Text #28
ID                                       : 30
Format                                   : UTF-8
Codec ID                                 : S_TEXT/UTF8
Codec ID/Info                            : UTF-8 Plain Text
Duration                                 : 1 h 8 min
Bit rate                                 : 87 b/s
Frame rate                               : 0.270 FPS
Count of elements                        : 1102
Stream size                              : 43.9 KiB (0%)
Language                                 : Swedish
Default                                  : No
Forced                                   : No
Text #29
ID                                       : 31
Format                                   : UTF-8
Codec ID                                 : S_TEXT/UTF8
Codec ID/Info                            : UTF-8 Plain Text
Duration                                 : 1 h 8 min
Bit rate                                 : 219 b/s
Frame rate                               : 0.283 FPS
Count of elements                        : 1155
Stream size                              : 109 KiB (0%)
Language                                 : Thai
Default                                  : No
Forced                                   : No
Text #30
ID                                       : 32
Format                                   : UTF-8
Codec ID                                 : S_TEXT/UTF8
Codec ID/Info                            : UTF-8 Plain Text
Duration                                 : 1 h 8 min
Bit rate                                 : 84 b/s
Frame rate                               : 0.270 FPS
Count of elements                        : 1103
Stream size                              : 42.0 KiB (0%)
Language                                 : Turkish
Default                                  : No
Forced                                   : No
Text #31
ID                                       : 33
Format                                   : UTF-8
Codec ID                                 : S_TEXT/UTF8
Codec ID/Info                            : UTF-8 Plain Text
Duration                                 : 1 h 8 min
Bit rate                                 : 146 b/s
Frame rate                               : 0.278 FPS
Count of elements                        : 1138
Stream size                              : 73.3 KiB (0%)
Language                                 : Ukrainian
Default                                  : No
Forced                                   : No
Text #32
ID                                       : 34
Format                                   : UTF-8
Codec ID                                 : S_TEXT/UTF8
Codec ID/Info                            : UTF-8 Plain Text
Duration                                 : 1 h 8 min
Bit rate                                 : 120 b/s
Frame rate                               : 0.269 FPS
Count of elements                        : 1101
Stream size                              : 60.3 KiB (0%)
Language                                 : Vietnamese
Default                                  : No
Forced                                   : No
Text #33
ID                                       : 35
Format                                   : UTF-8
Codec ID                                 : S_TEXT/UTF8
Codec ID/Info                            : UTF-8 Plain Text
Duration                                 : 1 h 8 min
Bit rate                                 : 94 b/s
Frame rate                               : 0.275 FPS
Count of elements                        : 1126
Stream size                              : 47.0 KiB (0%)
Title                                    : Simplified
Language                                 : Chinese (Simplied)
Default                                  : No
Forced                                   : No
Text #34
ID                                       : 36
Format                                   : UTF-8
Codec ID                                 : S_TEXT/UTF8
Codec ID/Info                            : UTF-8 Plain Text
Duration                                 : 1 h 8 min
Bit rate                                 : 86 b/s
Frame rate                               : 0.270 FPS
Count of elements                        : 1104
Stream size                              : 43.2 KiB (0%)
Title                                    : Traditional
Language                                 : Chinese (Traditional)
Default                                  : No
Forced                                   : No
Menu
01:04:56.000                             : en:End Credits

蓝光高清网提示您 点击下方附件名称 即可开始下载

多版本下载时请注意区分

体坛秘史:AND1的兴衰[中文字幕].Untold.The.Rise.and.Fall.of.AND1.2022.2160p.4k电影下载

体坛秘史:AND1的兴衰[中文字幕].Untold.The.Rise.and.Fall.of.AND1.2022.2160p.NF.WEB-DL.x265.10bit.SDR.DDP5.1-COPiUM 8.23GB

Untold.The.Rise.and.Fall.of.AND1.2022.2160p.NF.WEB-DL.x265.10bit.SDR.DDP5.1-COPiUM.torrent ( 21.26 KB )



体坛秘史:AND1的兴衰[中文字幕].Untold.The.Rise.and.Fall.of.AND1.2022.2160p.NF.WEB-DL.DDP5.1.DV.MKV.x265-COPiUM 9.12GB

Untold.The.Rise.and.Fall.of.AND1.2022.2160p.NF.WEB-DL.DDP5.1.DV.MKV.x265-COPiUM.torrent ( 23.48 KB )



体坛秘史:AND1的兴衰[中文字幕].Untold.The.Rise.and.Fall.of.AND1.2022.2160p.NF.WEB-DL.DDP5.1.DV.MP4.x265-DVSUX 9.12GB

Untold.The.Rise.and.Fall.of.AND1.2022.2160p.NF.WEB-DL.DDP5.1.DV.MP4.x265-DVSUX.torrent ( 23.48 KB )



体坛秘史:AND1的兴衰[中文字幕].Untold.The.Rise.and.Fall.of.AND1.2022.2160p.NF.WEB-DL.x265.10bit.HDR.DDP5.1-COPiUM 9.02GB

Untold.The.Rise.and.Fall.of.AND1.2022.2160p.NF.WEB-DL.x265.10bit.HDR.DDP5.1-COPiUM.torrent ( 23.24 KB )



来源: 体坛秘史:AND1的兴衰[中文字幕].Untold.The.Rise.and.Fall.of.AND1.2022.2160p.NF.WEB-DL.x265.10bit.SDR.DDP5.1-COPiUM 4k电影下载
加入蓝光高清网VIP会员  无限制下载本站所有资源---点这里

资源下载、资源播放、字幕使用、无法下载等常见问题---点这里
回复

使用道具 举报

全部回复0 显示全部楼层

发表回复

您需要登录后才可以回帖 登录 | 立即注册

本版积分规则