本站已运行

蓝光高清网

搜索
开启左侧

[历史纪录片] 后裔:最后的奴隶船/非洲城的后裔4k.Descendant.2022.2160p.NF.WEB-DL.x265.10bit.SDR.DDP5.1-电影下载

蓝鸟 发表于 2023-1-6 11:03:08 | 显示全部楼层 |阅读模式

后裔:最后的奴隶船/非洲城的后裔4k.Descendant.2022.2160p.NF.WEB-DL.x265.10bit.SDR.DDP5.1-电影下载 ...

后裔:最后的奴隶船/非洲城的后裔4k.Descendant.2022.2160p.NF.WEB-DL.x265.10bit.SDR.DDP5.1-电影下载 ...




简       介


  《Descendant》 带观众走近阿拉巴马州的小社区“非洲城”,听这里的成员分享个人和群体故事,她/他们的祖先曾经被押上历史上的最后一艘运奴船“克利提达号”,像货物一样从非洲被非法运往美国。数百年来,克利提达号的存在已是公开的秘密,如今这又得到一群海洋考古学家的证实。本片探索了这一发现对这群后裔的影响,她/他们将设法疏理过去,同时成为自己今后命运的主宰。

影片参数
后裔:最后的奴隶船/非洲城的后裔4k.Descendant.2022.2160p.NF.WEB-DL.x265.10bit.SDR.DDP5.1-电影信息
Video
ID : 1
Format : HEVC
Format/Info : High Efficiency Video Coding
Format profile : Main 10@L5@Main
Codec ID : V_MPEGH/ISO/HEVC
Duration : 1 h 49 min
Bit rate : 17.6 Mb/s
Width : 3 840 pixels
Height : 2 160 pixels
Display aspect ratio : 16:9
Frame rate mode : Constant
Frame rate : 23.976 (24000/1001) FPS
Color space : YUV
Chroma subsampling : 4:2:0
Bit depth : 10 bits
Bits/(Pixel*Frame) : 0.088
Stream size : 13.5 GiB (96%)
Default : Yes
Forced : No
Color range : Limited
Color primaries : BT.709
Transfer characteristics : BT.709
Matrix coefficients : BT.709


Audio
ID : 2
Format : E-AC-3
Format/Info : Enhanced AC-3
Commercial name : Dolby Digital Plus
Codec ID : A_EAC3
Duration : 1 h 49 min
Bit rate mode : Constant
Bit rate : 640 kb/s
Channel(s) : 6 channels
Channel layout : L R C LFE Ls Rs
Sampling rate : 48.0 kHz
Frame rate : 31.250 FPS (1536 SPF)
Compression mode : Lossy
Stream size : 503 MiB (4%)
Title : English
Language : English
Service kind : Complete Main
Default : Yes
Forced : No


Text #29
ID : 31
Format : UTF-8
Codec ID : S_TEXT/UTF8
Codec ID/Info : UTF-8 Plain Text
Duration : 1 h 47 min
Bit rate : 201 b/s
Frame rate : 0.255 FPS
Count of elements : 1643
Stream size : 158 KiB (0%)
Title : Thai
Language : Thai
Default : No
Forced : No


Text #30
ID : 32
Format : UTF-8
Codec ID : S_TEXT/UTF8
Codec ID/Info : UTF-8 Plain Text
Duration : 1 h 47 min
Bit rate : 80 b/s
Frame rate : 0.240 FPS
Count of elements : 1551
Stream size : 63.1 KiB (0%)
Title : Turkish
Language : Turkish
Default : No
Forced : No


Text #31
ID : 33
Format : UTF-8
Codec ID : S_TEXT/UTF8
Codec ID/Info : UTF-8 Plain Text
Duration : 1 h 47 min
Bit rate : 138 b/s
Frame rate : 0.248 FPS
Count of elements : 1599
Stream size : 109 KiB (0%)
Title : Ukrainian
Language : Ukrainian
Default : No
Forced : No


Text #32
ID : 34
Format : UTF-8
Codec ID : S_TEXT/UTF8
Codec ID/Info : UTF-8 Plain Text
Duration : 1 h 47 min
Bit rate : 124 b/s
Frame rate : 0.231 FPS
Count of elements : 1490
Stream size : 97.8 KiB (0%)
Title : Vietnamese
Language : Vietnamese
Default : No
Forced : No


Text #33
ID : 35
Format : UTF-8
Codec ID : S_TEXT/UTF8
Codec ID/Info : UTF-8 Plain Text
Duration : 1 h 47 min
Bit rate : 88 b/s
Frame rate : 0.256 FPS
Count of elements : 1648
Stream size : 69.3 KiB (0%)
Title : Simplified, Chinese
Language : Chinese
Default : No
Forced : No


Text #34
ID : 36
Format : UTF-8
Codec ID : S_TEXT/UTF8
Codec ID/Info : UTF-8 Plain Text
Duration : 1 h 47 min
Bit rate : 84 b/s
Frame rate : 0.261 FPS
Count of elements : 1684
Stream size : 66.4 KiB (0%)
Title : Traditional, Chinese
Language : Chinese
Default : No
Forced : No


Menu
00:00:00.000 : enart 01
01:44:19.450 : en:Credits

蓝光高清网提示您 点击下方附件名称 即可开始下载

后裔:最后的奴隶船/非洲城的后裔4k.Descendant.2022.2160p.NF.WEB-DL.x265.10bit.SDR.DDP5.1-电影下载

非洲城的后裔4k.Descendant.2022.2160p.NF.WEB-DL.x265.10bit.SDR.DDP5.1-简繁中字【13.99 GB】

非洲城的后裔4k.Descendant.2022.2160p.NF.WEB-DL.x265.10bit.SDR.DDP5.1-XEBEC.torrent ( 18.13 KB )



来源: 后裔:最后的奴隶船/非洲城的后裔4k.Descendant.2022.2160p.NF.WEB-DL.x265.10bit.SDR.DDP5.1-电影下载
加入蓝光高清网VIP会员  无限制下载本站所有资源---点这里

资源下载、资源播放、字幕使用、无法下载等常见问题---点这里
回复

使用道具 举报

全部回复0 显示全部楼层

发表回复

您需要登录后才可以回帖 登录 | 立即注册

本版积分规则