本站已运行

蓝光高清网

搜索
开启左侧

[专题系列纪录片] 吉尔莫·德尔·托罗的匹诺曹:幕后匠人4k.Guillermo.del.Toros.Pinocchio.Handcarved.Cinema.2022.2160p.NF.WEB-DL.x265.10bit.SDR.DDP5.1-纪录片下载

蓝鸟 发表于 2023-1-6 11:06:44 | 显示全部楼层 |阅读模式

吉尔莫·德尔·托罗的匹诺曹:幕后匠人4k.Guillermo.del.Toros.Pinocchio.Handcarved.Cinema.2022.2160p.NF ...

吉尔莫·德尔·托罗的匹诺曹:幕后匠人4k.Guillermo.del.Toros.Pinocchio.Handcarved.Cinema.2022.2160p.NF ...




简       介


       幕后讨论动画技术和《匹诺曹》的制作。

影片参数
吉拿域戴拖路之皮诺丘:幕后匠人(港)/吉尔莫·德尔·托罗的匹诺曹:幕后匠人4k.Guillermo.del.Toros.Pinocchio.Handcarved.Cinema.2022.2160p.NF.WEB-DL.x265.10bit.SDR.DDP5.1-纪录片信息
Video
ID : 1
Format : HEVC
Format/Info : High Efficiency Video Coding
Format profile : Main 10@L5@Main
Codec ID : V_MPEGH/ISO/HEVC
Duration : 36 min 45 s
Bit rate : 12.0 Mb/s
Width : 3 840 pixels
Height : 2 160 pixels
Display aspect ratio : 16:9
Frame rate mode : Constant
Frame rate : 23.976 (24000/1001) FPS
Color space : YUV
Chroma subsampling : 4:2:0
Bit depth : 10 bits
Bits/(Pixel*Frame) : 0.060
Stream size : 3.08 GiB (95%)
Language : English
Default : Yes
Forced : No
Color range : Limited
Color primaries : BT.709
Transfer characteristics : BT.709
Matrix coefficients : BT.709


Audio
ID : 2
Format : E-AC-3
Format/Info : Enhanced AC-3
Commercial name : Dolby Digital Plus
Codec ID : A_EAC3
Duration : 36 min 45 s
Bit rate mode : Constant
Bit rate : 640 kb/s
Channel(s) : 6 channels
Channel layout : L R C LFE Ls Rs
Sampling rate : 48.0 kHz
Frame rate : 31.250 FPS (1536 SPF)
Compression mode : Lossy
Stream size : 168 MiB (5%)
Language : English
Service kind : Complete Main
Default : Yes
Forced : No


Text #29
ID : 31
Format : UTF-8
Codec ID : S_TEXT/UTF8
Codec ID/Info : UTF-8 Plain Text
Duration : 36 min 32 s
Bit rate : 113 b/s
Frame rate : 0.290 FPS
Count of elements : 635
Stream size : 30.4 KiB (0%)
Language : Romanian
Default : No
Forced : No


Text #30
ID : 32
Format : UTF-8
Codec ID : S_TEXT/UTF8
Codec ID/Info : UTF-8 Plain Text
Duration : 36 min 32 s
Bit rate : 172 b/s
Frame rate : 0.293 FPS
Count of elements : 642
Stream size : 46.3 KiB (0%)
Language : Russian
Default : No
Forced : No


Text #31
ID : 33
Format : UTF-8
Codec ID : S_TEXT/UTF8
Codec ID/Info : UTF-8 Plain Text
Duration : 36 min 32 s
Bit rate : 96 b/s
Frame rate : 0.259 FPS
Count of elements : 568
Stream size : 25.8 KiB (0%)
Language : Swedish
Default : No
Forced : No


Text #32
ID : 34
Format : UTF-8
Codec ID : S_TEXT/UTF8
Codec ID/Info : UTF-8 Plain Text
Duration : 36 min 32 s
Bit rate : 276 b/s
Frame rate : 0.312 FPS
Count of elements : 683
Stream size : 74.1 KiB (0%)
Language : Thai
Default : No
Forced : No


Text #33
ID : 35
Format : UTF-8
Codec ID : S_TEXT/UTF8
Codec ID/Info : UTF-8 Plain Text
Duration : 36 min 32 s
Bit rate : 104 b/s
Frame rate : 0.253 FPS
Count of elements : 554
Stream size : 28.0 KiB (0%)
Language : Turkish
Default : No
Forced : No


Text #34
ID : 36
Format : UTF-8
Codec ID : S_TEXT/UTF8
Codec ID/Info : UTF-8 Plain Text
Duration : 36 min 32 s
Bit rate : 178 b/s
Frame rate : 0.303 FPS
Count of elements : 665
Stream size : 47.8 KiB (0%)
Language : Ukrainian
Default : No
Forced : No


Text #35
ID : 37
Format : UTF-8
Codec ID : S_TEXT/UTF8
Codec ID/Info : UTF-8 Plain Text
Duration : 36 min 32 s
Bit rate : 143 b/s
Frame rate : 0.301 FPS
Count of elements : 660
Stream size : 38.5 KiB (0%)
Language : Vietnamese
Default : No
Forced : No


Text #36
ID : 38
Format : UTF-8
Codec ID : S_TEXT/UTF8
Codec ID/Info : UTF-8 Plain Text
Duration : 36 min 32 s
Bit rate : 101 b/s
Frame rate : 0.311 FPS
Count of elements : 682
Stream size : 27.2 KiB (0%)
Title : Simplified
Language : Chinese (Simplied)
Default : No
Forced : No


Text #37
ID : 39
Format : UTF-8
Codec ID : S_TEXT/UTF8
Codec ID/Info : UTF-8 Plain Text
Duration : 36 min 32 s
Bit rate : 89 b/s
Frame rate : 0.308 FPS
Count of elements : 676
Stream size : 24.0 KiB (0%)
Title : Traditional
Language : Chinese (Traditional)
Default : No
Forced : No


Menu
00:36:39.000 : en:End Credits

蓝光高清网提示您 点击下方附件名称 即可开始下载

吉拿域戴拖路之皮诺丘:幕后匠人(港)/吉尔莫·德尔·托罗的匹诺曹:幕后匠人4k.Guillermo.del.Toros.Pinocchio.Handcarved.Cinema.2022.2160p.NF.WEB-DL.x265.10bit.SDR.DDP5.1-纪录片下载

吉尔莫·德尔·托罗的匹诺曹:幕后匠人4k.Guillermo.del.Toros.Pinocchio.Handcarved.Cinema.2022.2160p.NF.WEB-DL.x265.10bit.SDR.DDP5.1-简繁中字【3.25 GB】

吉尔莫·德尔·托罗的匹诺曹:幕后匠人4k.Guillermo.del.Toros.Pinocchio.Handcarved.Cinema.2022.2160p.NF.WEB-DL.x265.10bit.SDR.DDP5.1-SMURF.torrent ( 16.95 KB )



来源: 吉尔莫·德尔·托罗的匹诺曹:幕后匠人4k.Guillermo.del.Toros.Pinocchio.Handcarved.Cinema.2022.2160p.NF.WEB-DL.x265.10bit.SDR.DDP5.1-纪录片下载
加入蓝光高清网VIP会员  无限制下载本站所有资源---点这里

资源下载、资源播放、字幕使用、无法下载等常见问题---点这里
回复

使用道具 举报

全部回复0 显示全部楼层

发表回复

您需要登录后才可以回帖 登录 | 立即注册

本版积分规则