本站已运行

蓝光高清网

搜索

[悬疑] 魔翼杀手.The.Prophecy.1995.iNTERNAL.1080p.BluRay.x264-PEGASUS 9.69GB

蓝鸟 发表于 2023-1-7 20:24:50 | 显示全部楼层 |阅读模式

魔翼杀手.The.Prophecy.1995.iNTERNAL.1080p.BluRay.x264-PEGASUS 9.69GB

魔翼杀手.The.Prophecy.1995.iNTERNAL.1080p.BluRay.x264-PEGASUS 9.69GB


标  题 魔翼杀手
译  名 凶胎 / 预言
片  名 The Prophecy
年  代 1995
产  地 美国
类  别 悬疑 / 惊悚 / 恐怖 / 奇幻
语  言 英语
上映日期 1995-08-05
IMDb评分 6.5/10 (30533人评价)
豆瓣评分 6.3/10 (156人评价)
片  长 98 分钟
导  演 格雷戈里·威顿 Gregory Widen
编  剧 格雷戈里·威顿 Gregory Widen
演  员 克里斯托弗·沃肯 Christopher Walken
       维吉妮娅·马德森 Virginia Madsen
       维果·莫腾森 Viggo Mortensen
       伊莱亚斯·科泰斯 Elias Koteas
       埃里克·斯托尔兹 Eric Stoltz
       阿曼达·普拉莫 Amanda Plummer
       Jeff Cadiente Jeff Cadiente
标  签 宗教 / 恐怖 / 美国 / ViggoMortensen / Christopher_Walken / 科幻 / 电影 / 奇幻

简  介

大天使Gabriel因为不满上帝将其所有注意力倾注到人类身上,计划发动一场天庭政变并杀死所有好天使。要政变成功,Gabriel必须获得一位残暴的将军的灵魂的支持,而将军的灵魂被得悉Gabriel阴谋的天使Simon附于美国小女孩Mary身上。由于天庭发生了战争,灵魂们暂不能升入天堂。Gabriel只得亲下人间寻找将军的灵魂……Thomas从神学院毕业后当了一名牧师,但由于对自己的信仰产生了怀疑,转行去当了一名警察,当他察觉Gabriel的阴谋后,联合教师Katherine一起保护懵然无知的Mary,撒旦由于担心这场战争将影响到自己的统治,他的加入使得事情更复杂了……

影片参数
  1. Video
  2. ID                                       : 1
  3. Format                                   : AVC
  4. Format/Info                              : Advanced Video Codec
  5. Format profile                           : [email protected]
  6. Format settings                          : CABAC / 5 Ref Frames
  7. Format settings, CABAC                   : Yes
  8. Format settings, Reference frames        : 5 frames
  9. Codec ID                                 : V_MPEG4/ISO/AVC
  10. Duration                                 : 1 h 37 min
  11. Bit rate                                 : 12.1 Mb/s
  12. Width                                    : 1 918 pixels
  13. Height                                   : 810 pixels
  14. Display aspect ratio                     : 2.35:1
  15. Frame rate mode                          : Constant
  16. Frame rate                               : 23.976 (24000/1001) FPS
  17. Color space                              : YUV
  18. Chroma subsampling                       : 4:2:0
  19. Bit depth                                : 8 bits
  20. Scan type                                : Progressive
  21. Bits/(Pixel*Frame)                       : 0.326
  22. Stream size                              : 8.29 GiB (86%)
  23. Writing library                          : x264 core 164 r3103 941cae6
  24. Encoding settings                        : cabac=1 / ref=5 / deblock=1:-3:-3 / analyse=0x3:0x133 / me=umh / subme=11 / psy=1 / psy_rd=1.02:0.00 / mixed_ref=1 / me_range=32 / chroma_me=1 / trellis=2 / 8x8dct=1 / cqm=0 / deadzone=21,11 / fast_pskip=0 / chroma_qp_offset=-2 / threads=25 / lookahead_threads=6 / sliced_threads=0 / nr=0 / decimate=0 / interlaced=0 / bluray_compat=0 / constrained_intra=0 / bframes=16 / b_pyramid=2 / b_adapt=2 / b_bias=0 / direct=3 / weightb=1 / open_gop=0 / weightp=2 / keyint=250 / keyint_min=23 / scenecut=40 / intra_refresh=0 / rc_lookahead=250 / rc=crf / mbtree=0 / crf=22.5 / qcomp=0.60 / qpmin=0 / qpmax=69 / qpstep=4 / vbv_maxrate=62500 / vbv_bufsize=78125 / crf_max=0.0 / nal_hrd=none / filler=0 / ip_ratio=1.30 / pb_ratio=1.20 / aq=3:0.80
  25. Default                                  : Yes
  26. Forced                                   : No
  27. Color range                              : Limited
  28. Color primaries                          : BT.709
  29. Matrix coefficients                      : BT.709
  30. Audio
  31. ID                                       : 2
  32. Format                                   : DTS XLL
  33. Format/Info                              : Digital Theater Systems
  34. Commercial name                          : DTS-HD Master Audio
  35. Codec ID                                 : A_DTS
  36. Duration                                 : 1 h 38 min
  37. Bit rate mode                            : Variable
  38. Bit rate                                 : 2 034 kb/s
  39. Channel(s)                               : 6 channels
  40. Channel layout                           : C L R Ls Rs LFE
  41. Sampling rate                            : 48.0 kHz
  42. Frame rate                               : 93.750 FPS (512 SPF)
  43. Bit depth                                : 16 bits
  44. Compression mode                         : Lossless
  45. Stream size                              : 1.40 GiB (14%)
  46. Language                                 : English
  47. Default                                  : Yes
  48. Forced                                   : No
  49. Menu
  50. 00:00:00.000                             : :Chapter 01
  51. 00:08:47.152                             : :Chapter 02
  52. 00:13:56.836                             : :Chapter 03
  53. 00:18:53.132                             : :Chapter 04
  54. 00:23:00.296                             : :Chapter 05
  55. 00:29:40.737                             : :Chapter 06
  56. 00:36:50.458                             : :Chapter 07
  57. 00:46:22.697                             : :Chapter 08
  58. 00:51:01.058                             : :Chapter 09
  59. 00:56:20.794                             : :Chapter 10
  60. 01:02:23.740                             : :Chapter 11
  61. 01:08:10.044                             : :Chapter 12
  62. 01:14:06.776                             : :Chapter 13
  63. 01:21:04.860                             : :Chapter 14
  64. 01:32:39.971                             : :Chapter 15
复制代码

魔翼杀手.The.Prophecy.1995.iNTERNAL.1080p.BluRay.x264-PEGASUS 9.69GB

魔翼杀手.The.Prophecy.1995.iNTERNAL.1080p.BluRay.x264-PEGASUS 9.69GB



蓝光高清网提示您 点击下方附件即可下载

魔翼杀手.The.Prophecy.1995.iNTERNAL.1080p.BluRay.x264-PEGASUS 9.69GB

The.Prophecy.1995.iNTERNAL.1080p.BluRay.x264-PEGASUS.torrent ( 24.97 KB )

加入蓝光高清网VIP会员  无限制下载本站所有资源---点这里

资源下载、资源播放、字幕使用、无法下载等常见问题---点这里
回复

使用道具 举报

全部回复1 显示全部楼层
yyyaaa手机认证 发表于 2023-12-31 11:52:24 | 显示全部楼层
论坛的资源很丰富,每天坚持签到认真回帖,谢谢分享 。
回复 支持 反对

使用道具 举报

发表回复

您需要登录后才可以回帖 登录 | 立即注册

本版积分规则

开通会员 帮助中心 返回顶部 返回列表