本站已运行

蓝光高清网

搜索
开启左侧

[专题系列纪录片] 一落千丈:波音大调查4k.Downfall.The.Case.Against.Boeing.2022.2160p.NF.WEB-DL.x265.10bit.HDR.DDP5.1-纪录片下载

蓝鸟 发表于 2023-1-9 17:56:38 | 显示全部楼层 |阅读模式
本帖最后由 蓝鸟 于 2023-1-9 17:58 编辑


一落千丈:波音大调查4k.Downfall.The.Case.Against.Boeing.2022.2160p.NF.WEB-DL.x265.10bit.HDR.DDP5.1- ...

一落千丈:波音大调查4k.Downfall.The.Case.Against.Boeing.2022.2160p.NF.WEB-DL.x265.10bit.HDR.DDP5.1- ...




简       介


  在《一落千丈:波音大调查》这部令人不寒而栗的纪录片中,曾获奥斯卡提名的电影人罗瑞·肯尼迪揭露了企业对问题的漠视和贪婪如何导致两架波音 MAX 737 飞机在短短五个月内相继失事。在航空专家、新闻记者、前波音职员、美国国会和受害者家属的主导下,这部电影揭开了一家曾经备受推崇的公司背后一味削减成本和掩人耳目的文化。《一落千丈:波音大调查》痛斥来自华尔街的败坏影响,并指出美国企业所秉承的理念的危险之处 — 有时这甚至事关人命。本片由罗瑞·肯尼迪执导和制作,马克·贝利制作和联合编剧,布莱恩·格拉泽和朗·霍华德监制。

影片参数

一落千丈:波音大调查4k.Downfall.The.Case.Against.Boeing.2022.2160p.NF.WEB-DL.x265.10bit.HDR.DDP5.1-纪录片信息
Video
ID : 1
Format : HEVC
Format/Info : High Efficiency Video Coding
Format profile : Main 10@L5@Main
HDR format : Dolby Vision, Version 1.0, dvhe.08.06, BL+RPU, HDR10 compatible / SMPTE ST 2086, HDR10 compatible
Codec ID : V_MPEGH/ISO/HEVC
Duration : 1 h 28 min
Bit rate : 14.7 Mb/s
Width : 3 840 pixels
Height : 2 160 pixels
Display aspect ratio : 16:9
Frame rate mode : Constant
Frame rate : 23.976 (24000/1001) FPS
Color space : YUV
Chroma subsampling : 4:2:0 (Type 2)
Bit depth : 10 bits
Bits/(Pixel*Frame) : 0.074
Stream size : 9.13 GiB (96%)
Language : English
Default : Yes
Forced : No
Color range : Limited
Color primaries : BT.2020
Transfer characteristics : PQ
Matrix coefficients : BT.2020 non-constant
Mastering display color primaries : Display P3
Mastering display luminance : min: 0.0001 cd/m2, max: 1000 cd/m2
Maximum Content Light Level : 1454 cd/m2
Maximum Frame-Average Light Level : 133 cd/m2


Audio
ID : 2
Format : E-AC-3
Format/Info : Enhanced AC-3
Commercial name : Dolby Digital Plus
Codec ID : A_EAC3
Duration : 1 h 30 min
Bit rate mode : Constant
Bit rate : 640 kb/s
Channel(s) : 6 channels
Channel layout : L R C LFE Ls Rs
Sampling rate : 48.0 kHz
Frame rate : 31.250 FPS (1536 SPF)
Compression mode : Lossy
Stream size : 413 MiB (4%)
Language : English
Service kind : Complete Main
Default : Yes
Forced : No


Text #32
ID : 34
Format : UTF-8
Codec ID : S_TEXT/UTF8
Codec ID/Info : UTF-8 Plain Text
Duration : 1 h 28 min
Bit rate : 118 b/s
Frame rate : 0.256 FPS
Count of elements : 1360
Stream size : 76.6 KiB (0%)
Language : Vietnamese
Default : No
Forced : No


Text #33
ID : 35
Format : UTF-8
Codec ID : S_TEXT/UTF8
Codec ID/Info : UTF-8 Plain Text
Duration : 1 h 28 min
Bit rate : 82 b/s
Frame rate : 0.252 FPS
Count of elements : 1341
Stream size : 53.8 KiB (0%)
Title : Simplified
Language : Chinese (Simplied)
Default : No
Forced : No


Text #34
ID : 36
Format : UTF-8
Codec ID : S_TEXT/UTF8
Codec ID/Info : UTF-8 Plain Text
Duration : 1 h 28 min
Bit rate : 77 b/s
Frame rate : 0.255 FPS
Count of elements : 1357
Stream size : 50.3 KiB (0%)
Title : Traditional
Language : Chinese (Traditional)
Default : No
Forced : No


Menu
01:27:28.000 : en:End Credits

蓝光高清网提示您 点击下方附件名称 即可开始下载


多版本下载时请注意区分


一落千丈:波音大调查4k.Downfall.The.Case.Against.Boeing.2022.2160p.NF.WEB-DL.x265.10bit.HDR.DDP5.1-纪录片下载

一落千丈:波音大调查4k.Downfall.The.Case.Against.Boeing.2022.2160p.NF.WEB-DL.x265.10bit.HDR.DDP5.1-简繁中字【9.53 GB】

一落千丈:波音大调查4k.Downfall.The.Case.Against.Boeing.2022.2160p.NF.WEB-DL.x265.10bit.HDR.DDP5.1-SMURF.torrent ( 24.52 KB )



一落千丈:波音大调查4k.Downfall.The.Case.Against.Boeing.2022.2160p.NF.WEB-DL.x265.10bit.SDR.DDP5.1-简繁中字【7.70 GB】

一落千丈:波音大调查4k.Downfall.The.Case.Against.Boeing.2022.2160p.NF.WEB-DL.x265.10bit.SDR.DDP5.1-SMURF.torrent ( 19.93 KB )



一落千丈:波音大调查4k.Downfall.The.Case.Against.Boeing.2022.2160p.NF.WEB-DL.DDP5.1.DV.MP4.x265-简繁中字【杜比视界】【11.88 GB】

一落千丈:波音大调查4k.Downfall.The.Case.Against.Boeing.2022.2160p.NF.WEB-DL.DDP5.1.DV.MP4.x265-DVSUX.torrent ( 15.54 KB )



一落千丈:波音大调查4k.Downfall.The.Case.Against.Boeing.2022.2160p.NF.WEB-DL.DDP5.1.DV.MKV.x265-简繁中字【杜比视界】【11.88 GB】

一落千丈:波音大调查4k.Downfall.The.Case.Against.Boeing.2022.2160p.NF.WEB-DL.DDP5.1.DV.MKV.x265-SMURF.torrent ( 15.53 KB )



来源: 一落千丈:波音大调查4k.Downfall.The.Case.Against.Boeing.2022.2160p.NF.WEB-DL.x265.10bit.HDR.DDP5.1-纪录片下载
加入蓝光高清网VIP会员  无限制下载本站所有资源---点这里

资源下载、资源播放、字幕使用、无法下载等常见问题---点这里
回复

使用道具 举报

全部回复0 显示全部楼层

发表回复

您需要登录后才可以回帖 登录 | 立即注册

本版积分规则