本站已运行

蓝光高清网

搜索
开启左侧

The.Drop.2022.2160p.WEB-DL.x265.10bit.SDR.DDP5.1-电影下载

 
蓝鸟 发表于 2023-1-18 14:10:59 | 显示全部楼层 |阅读模式
The.Drop 豆瓣评分: 无评分
上映时间:2022年        影片时长:92分钟
类型:喜剧 
地区:美国 
导演:萨拉·阿迪纳·史密斯
主演:安娜·康克尔 / 杰梅因·福勒 / 吉莉恩·贝尔 / 乌特卡什·安邦德卡尔 / 罗宾·席德
画质标准:4K SDR  封装音轨:Dolby TrueHD 5.1 
简       介


       莱克斯(安娜·康克尔饰)和曼尼(杰梅恩·福勒饰)是一对幸福的年轻夫妇,在洛杉矶经营着他们梦想中的手工面包店,并对一起组建家庭感到兴奋。去热带岛屿度假胜地参加朋友的目的地婚礼,恰逢莱克斯的排卵周期,感觉是怀孕的绝佳机会。但是,当他们抵达天堂后不久,莱克斯意外地将朋友的婴儿(Aparta Nanchella,“搜索派对”)丢在所有朋友面前时,美好的氛围和美好的希望就被切断了。随着相互指责、被动攻击和旧伤开始渗透到岛上的重逢中,曼尼和莱克斯的未来陷入深深的不确定性,天堂成为了我们夫妇的炼狱。

影片参数

The.Drop.2022.2160p.WEB-DL.x265.10bit.SDR.DDP5.1-电影信息
Video
ID : 1
Format : HEVC
Format/Info : High Efficiency Video Coding
Format profile : Main 10@L5@Main
Codec ID : V_MPEGH/ISO/HEVC
Duration : 1 h 32 min
Bit rate : 11.5 Mb/s
Width : 3 840 pixels
Height : 2 160 pixels
Display aspect ratio : 16:9
Frame rate mode : Constant
Frame rate : 23.976 (24000/1001) FPS
Color space : YUV
Chroma subsampling : 4:2:0
Bit depth : 10 bits
Bits/(Pixel*Frame) : 0.058
Stream size : 7.44 GiB (96%)
Default : Yes
Forced : No


Audio
ID : 2
Format : E-AC-3
Format/Info : Enhanced AC-3
Commercial name : Dolby Digital Plus
Codec ID : A_EAC3
Duration : 1 h 32 min
Bit rate mode : Constant
Bit rate : 256 kb/s
Channel(s) : 6 channels
Channel layout : L R C LFE Ls Rs
Sampling rate : 48.0 kHz
Frame rate : 31.250 FPS (1536 SPF)
Compression mode : Lossy
Stream size : 170 MiB (2%)
Language : English
Service kind : Complete Main
Default : Yes
Forced : No


Text #1
ID : 3
Format : UTF-8
Codec ID : S_TEXT/UTF8
Codec ID/Info : UTF-8 Plain Text
Title : English [SDH]
Language : English
Default : No
Forced : No


Text #2
ID : 4
Format : UTF-8
Codec ID : S_TEXT/UTF8
Codec ID/Info : UTF-8 Plain Text
Title : Spanish [SDH]
Language : Spanish
Default : No
Forced : No


蓝光高清网提示您 点击下方附件名称 即可开始下载


The.Drop.2022.2160p.WEB-DL.x265.10bit.SDR.DDP5.1-电影下载

The.Drop.2022.2160p.WEB-DL.x265.10bit.SDR.DDP5.1【7.76 GB】

The.Drop.2022.2160p.WEB-DL.x265.10bit.SDR.DDP5.1-NAISU.torrent ( 20.08 KB )


加入蓝光高清网VIP会员  无限制下载本站所有资源---点这里

资源下载、资源播放、字幕使用、无法下载等常见问题---点这里
回复

使用道具 举报

全部回复8 显示全部楼层
PCHUN 发表于 2023-1-19 00:03:09 | 显示全部楼层
Thanks for sharing
回复 支持 反对

使用道具 举报

1080i 发表于 2023-1-19 01:20:46 | 显示全部楼层
T.h.a.n.k.s
回复

使用道具 举报

Appleli手机认证 发表于 2023-1-20 00:50:34 | 显示全部楼层

Thanks for sharing
回复 支持 反对

使用道具 举报

Appleli手机认证 发表于 2023-1-20 00:50:43 | 显示全部楼层
Thanks for sharing

回复 支持 反对

使用道具 举报

gavinmc手机认证 发表于 2023-1-20 01:06:13 | 显示全部楼层
Thanks for sharing
回复 支持 反对

使用道具 举报

dongshouba手机认证 发表于 2023-1-21 01:48:55 | 显示全部楼层
感谢分享
回复

使用道具 举报

热水滴 发表于 2023-1-22 07:59:19 | 显示全部楼层
谢谢楼主分享
回复 支持 反对

使用道具 举报

再会未来 发表于 2023-1-24 11:52:59 | 显示全部楼层
111111111111111
回复 支持 反对

使用道具 举报

发表回复

您需要登录后才可以回帖 登录 | 立即注册

本版积分规则