本站已运行

蓝光高清网

搜索
开启左侧

[科幻] 外星+人.Alienoid.2022.KOREAN.1080p.BluRay.x264.TrueHD.7.1.Atmos-NOGRP 18.77GB

蓝鸟 发表于 2023-1-19 23:10:51 | 显示全部楼层 |阅读模式

外星+人.Alienoid.2022.KOREAN.1080p.BluRay.x264.TrueHD.7.1.Atmos-NOGRP 18.77GB

外星+人.Alienoid.2022.KOREAN.1080p.BluRay.x264.TrueHD.7.1.Atmos-NOGRP 18.77GB


标  题 外星+人
译  名 祖宗膠戰外星人(港) / 外星+人1 / 외계인 / 시간의 칼 / Alien Part.1 / Alienoid / Alien + People: Part 1
年  代 2022
产  地 韩国
类  别 科幻 / 古装
语  言 韩语
上映日期 2022-07-20(韩国)
IMDb评分 6.3/10 (2610人评价)
豆瓣评分 6.5/10 (9973人评价)
片  长 142分钟
导  演 崔东勋 Dong-hoon Choi
编  剧 崔东勋 Dong-hoon Choi
       李基哲 Gi-cheol Lee
演  员 柳俊烈 Jun-yeol Ryu
       金宇彬 Woo-bin Kim
       金泰梨 Tae-ri Kim
       苏志燮 Ji-seob So
       廉晶雅 Jung-ah Yum
       赵祐镇 Woo-jin Jo
       金义城 Eui-sung Kim
       李荷妮 Ha-nui Lee
       申正根 Jeong-geun Sin
       李时勋 Si-hoon Lee
       刘在明 Jae-myung Yoo
       金灿亨 Kim Chan Hyung

简  介

该片讲述了道士们争夺传闻中神剑的高丽末期和外星人出没的2022年之间的时光之门被打开后,引发的异想天开的故事。

影片参数
  1. Video
  2. ID                                       : 1
  3. Format                                   : AVC
  4. Format/Info                              : Advanced Video Codec
  5. Format profile                           : [email protected]
  6. Format settings                          : CABAC / 5 Ref Frames
  7. Format settings, CABAC                   : Yes
  8. Format settings, Reference frames        : 5 frames
  9. Codec ID                                 : V_MPEG4/ISO/AVC
  10. Duration                                 : 2 h 22 min
  11. Bit rate                                 : 12.3 Mb/s
  12. Width                                    : 1 920 pixels
  13. Height                                   : 804 pixels
  14. Display aspect ratio                     : 2.40:1
  15. Frame rate mode                          : Constant
  16. Frame rate                               : 23.976 (24000/1001) FPS
  17. Color space                              : YUV
  18. Chroma subsampling                       : 4:2:0
  19. Bit depth                                : 8 bits
  20. Scan type                                : Progressive
  21. Bits/(Pixel*Frame)                       : 0.333
  22. Stream size                              : 12.3 GiB (65%)
  23. Writing library                          : x264 core 157 r2938 2b00a84 [email protected] Mod
  24. Encoding settings                        : cabac=1 / ref=5 / deblock=1:-3:-3 / analyse=0x3:0x133 / me=umh / subme=10 / psy=1 / psy_rd=1.05:0.00 / mixed_ref=1 / me_range=32 / chroma_me=1 / trellis=2 / 8x8dct=1 / cqm=0 / deadzone=21,11 / fast_pskip=0 / chroma_qp_offset=-2 / threads=12 / lookahead_threads=2 / sliced_threads=0 / nr=0 / decimate=0 / interlaced=0 / bluray_compat=0 / constrained_intra=0 / bframes=8 / b_pyramid=2 / b_adapt=2 / b_bias=0 / direct=3 / weightb=1 / open_gop=0 / weightp=2 / keyint=250 / keyint_min=24 / scenecut=40 / intra_refresh=0 / rc_lookahead=250 / rc=crf / mbtree=0 / crf=16.8 / qcomp=0.60 / qpmin=0 / qpmax=69 / qpstep=4 / vbv_maxrate=62500 / vbv_bufsize=78125 / crf_max=0.0 / nal_hrd=none / filler=0 / ip_ratio=1.30 / pb_ratio=1.20 / aq=3:0.80
  25. Language                                 : English
  26. Default                                  : No
  27. Forced                                   : No
  28. Color range                              : Limited
  29. Color primaries                          : BT.709
  30. Matrix coefficients                      : BT.709
  31. Audio #1
  32. ID                                       : 2
  33. ID in the original source medium         : 4353 (0x1101)
  34. Format                                   : MLP FBA 16-ch
  35. Format/Info                              : Meridian Lossless Packing FBA with 16-channel presentation
  36. Commercial name                          : Dolby TrueHD with Dolby Atmos
  37. Codec ID                                 : A_TRUEHD
  38. Duration                                 : 2 h 22 min
  39. Bit rate mode                            : Variable
  40. Bit rate                                 : 3 303 kb/s
  41. Maximum bit rate                         : 5 397 kb/s
  42. Channel(s)                               : 8 channels
  43. Channel layout                           : L R C LFE Ls Rs Lb Rb
  44. Sampling rate                            : 48.0 kHz
  45. Frame rate                               : 1 200.000 FPS (40 SPF)
  46. Bit depth                                : 24 bits
  47. Compression mode                         : Lossless
  48. Delay relative to video                  : 13 s 968 ms
  49. Stream size                              : 3.30 GiB (18%)
  50. Title                                    : TrueHD 7.1 Atmos
  51. Language                                 : Korean
  52. Default                                  : Yes
  53. Forced                                   : No
  54. Original source medium                   : Blu-ray
  55. Number of dynamic objects                : 13
  56. Bed channel count                        : 1 channel
  57. Bed channel configuration                : LFE
  58. Audio #2
  59. ID                                       : 3
  60. ID in the original source medium         : 4353 (0x1101)
  61. Format                                   : AC-3
  62. Format/Info                              : Audio Coding 3
  63. Commercial name                          : Dolby Digital
  64. Format settings                          : Dolby Surround EX
  65. Codec ID                                 : A_AC3
  66. Duration                                 : 2 h 22 min
  67. Bit rate mode                            : Constant
  68. Bit rate                                 : 640 kb/s
  69. Channel(s)                               : 6 channels
  70. Channel layout                           : L R C LFE Ls Rs
  71. Sampling rate                            : 48.0 kHz
  72. Frame rate                               : 31.250 FPS (1536 SPF)
  73. Compression mode                         : Lossy
  74. Delay relative to video                  : 13 s 968 ms
  75. Stream size                              : 654 MiB (3%)
  76. Title                                    : DD 5.1
  77. Language                                 : Korean
  78. Service kind                             : Complete Main
  79. Default                                  : No
  80. Forced                                   : No
  81. Original source medium                   : Blu-ray
  82. Audio #3
  83. ID                                       : 4
  84. ID in the original source medium         : 4354 (0x1102)
  85. Format                                   : DTS XLL
  86. Format/Info                              : Digital Theater Systems
  87. Commercial name                          : DTS-HD Master Audio
  88. Codec ID                                 : A_DTS
  89. Duration                                 : 2 h 22 min
  90. Bit rate mode                            : Variable
  91. Bit rate                                 : 2 476 kb/s
  92. Channel(s)                               : 6 channels
  93. Channel layout                           : C L R Ls Rs LFE
  94. Sampling rate                            : 48.0 kHz
  95. Frame rate                               : 93.750 FPS (512 SPF)
  96. Bit depth                                : 16 bits
  97. Compression mode                         : Lossless
  98. Stream size                              : 2.47 GiB (13%)
  99. Title                                    : DTS-HD MA 5.1
  100. Language                                 : English
  101. Default                                  : No
  102. Forced                                   : No
  103. Original source medium                   : Blu-ray
  104. Text #1
  105. ID                                       : 5
  106. Format                                   : UTF-8
  107. Codec ID                                 : S_TEXT/UTF8
  108. Codec ID/Info                            : UTF-8 Plain Text
  109. Duration                                 : 2 h 19 min
  110. Bit rate                                 : 35 b/s
  111. Frame rate                               : 0.160 FPS
  112. Count of elements                        : 1335
  113. Stream size                              : 36.5 KiB (0%)
  114. Language                                 : English
  115. Default                                  : Yes
  116. Forced                                   : No
  117. Text #2
  118. ID                                       : 6
  119. Format                                   : UTF-8
  120. Codec ID                                 : S_TEXT/UTF8
  121. Codec ID/Info                            : UTF-8 Plain Text
  122. Duration                                 : 2 h 19 min
  123. Bit rate                                 : 40 b/s
  124. Frame rate                               : 0.166 FPS
  125. Count of elements                        : 1389
  126. Stream size                              : 41.1 KiB (0%)
  127. Title                                    : SDH
  128. Language                                 : English
  129. Default                                  : No
  130. Forced                                   : No
  131. Text #3
  132. ID                                       : 7
  133. ID in the original source medium         : 4608 (0x1200)
  134. Format                                   : PGS
  135. Muxing mode                              : zlib
  136. Codec ID                                 : S_HDMV/PGS
  137. Codec ID/Info                            : Picture based subtitle format used on BDs/HD-DVDs
  138. Duration                                 : 2 h 19 min
  139. Bit rate                                 : 26.3 kb/s
  140. Frame rate                               : 0.292 FPS
  141. Count of elements                        : 2441
  142. Stream size                              : 26.2 MiB (0%)
  143. Language                                 : English
  144. Default                                  : No
  145. Forced                                   : No
  146. Original source medium                   : Blu-ray
  147. Text #4
  148. ID                                       : 8
  149. ID in the original source medium         : 4608 (0x1200)
  150. Format                                   : PGS
  151. Muxing mode                              : zlib
  152. Codec ID                                 : S_HDMV/PGS
  153. Codec ID/Info                            : Picture based subtitle format used on BDs/HD-DVDs
  154. Duration                                 : 1 h 27 min
  155. Bit rate                                 : 86 b/s
  156. Frame rate                               : 0.002 FPS
  157. Count of elements                        : 8
  158. Stream size                              : 55.5 KiB (0%)
  159. Language                                 : English
  160. Default                                  : No
  161. Forced                                   : No
  162. Original source medium                   : Blu-ray
  163. Menu
  164. 00:00:00.000                             : en:Chapter 01
  165. 00:16:46.213                             : en:Chapter 02
  166. 00:25:49.881                             : en:Chapter 03
  167. 00:33:12.740                             : en:Chapter 04
  168. 00:38:47.283                             : en:Chapter 05
  169. 00:54:32.560                             : en:Chapter 06
  170. 01:05:46.317                             : en:Chapter 07
  171. 01:23:35.802                             : en:Chapter 08
  172. 01:34:28.329                             : en:Chapter 09
  173. 01:43:55.187                             : en:Chapter 10
  174. 01:55:22.749                             : en:Chapter 11
  175. 02:02:57.078                             : en:Chapter 12
复制代码

外星+人.Alienoid.2022.KOREAN.1080p.BluRay.x264.TrueHD.7.1.Atmos-NOGRP 18.77GB

外星+人.Alienoid.2022.KOREAN.1080p.BluRay.x264.TrueHD.7.1.Atmos-NOGRP 18.77GB

外星+人.Alienoid.2022.KOREAN.1080p.BluRay.x264.TrueHD.7.1.Atmos-NOGRP 18.77GB

外星+人.Alienoid.2022.KOREAN.1080p.BluRay.x264.TrueHD.7.1.Atmos-NOGRP 18.77GB



蓝光高清网提示您 点击下方附件即可下载

外星+人.Alienoid.2022.KOREAN.1080p.BluRay.x264.TrueHD.7.1.Atmos-NOGRP 18.77GB

Alienoid.2022.KOREAN.1080p.BluRay.x264.TrueHD.7.1.Atmos-NOGRP.torrent ( 24.12 KB )

加入蓝光高清网VIP会员  无限制下载本站所有资源---点这里

资源下载、资源播放、字幕使用、无法下载等常见问题---点这里
回复

使用道具 举报

全部回复0 显示全部楼层

发表回复

您需要登录后才可以回帖 登录 | 立即注册

本版积分规则