本站已运行

蓝光高清网

搜索
开启左侧

[剧情] 蒂尔.Till.2022.1080p.BluRay.x264-PiGNUS 17.05GB

蓝鸟 发表于 2023-1-19 23:12:48 | 显示全部楼层 |阅读模式

蒂尔.Till.2022.1080p.BluRay.x264-PiGNUS 17.05GB

蒂尔.Till.2022.1080p.BluRay.x264-PiGNUS 17.05GB


标  题 蒂尔
译  名 提尔:纯真之死
片  名 Till
年  代 2022
产  地 美国
类  别 剧情 / 传记 / 历史
语  言 英语
上映日期 2022-10-01(纽约电影节) / 2022-10-14(美国)
IMDb评分 7.2/10 (5724人评价)
豆瓣评分 6.9/10 (1325人评价)
片  长 130分钟
导  演 池娜叶·楚库 Chinonye Chukwu
编  剧 池娜叶·楚库 Chinonye Chukwu
演  员 丹妮尔·戴德怀勒 Danielle Deadwyler
       乌比·戈德堡 Whoopi Goldberg
       西恩·帕特里克·汤玛斯 Sean Patrick Thomas
       海莉·贝内特 Haley Bennett
       弗兰基·费森 Frankie Faison
       埃德·阿玛特鲁多 Ed Amatrudo
       罗杰·格午埃文·史密斯 Roger Guenveur Smith
       杰米·劳森 Jayme Lawson
       凯文·卡罗尔 Kevin Carroll
       托辛·科尔 Tosin Cole
       约翰·道格拉斯·汤普森 John Douglas Thompson
       乔希·文图拉 Josh Ventura
       肖恩·迈克尔·韦伯 Sean Michael Weber
       蒂姆·韦尔 Tim Ware
       阿·米切尔 Al Mitchell
        J.P. Edwards
       瑞弗·休斯 Ralph Hughes
       恩杰玛·威廉姆斯 Njema Williams
       杰克逊·比尔斯 Jackson Beals
       David Caprita David Caprita
       杰米·雷内尔 Jamie Renell

简  介

故事讲述了美国黑人民权运动中的一桩真实事件,1955年,年仅14岁的埃米特·路易斯·蒂尔被指 责与一名白人妇女有不正当关系后,被绑架并被残忍地杀害。两名白人嫌疑人在全白人陪审团的审判下,被判无罪。埃米特的母亲玛米·蒂尔-莫布利(丹妮尔饰)为了帮儿子伸张正义,决定在埃米特的葬礼上敞开棺材,并让《Jet》杂志刊登自己儿子葬礼照片,她想让世界各地的人们知道她儿子的遭遇。随后成千上万的人看到了埃米特的照片,这也使得埃米特案成为了对南方黑人司法不公的象征。乌比饰演埃米特的祖母阿尔玛·卡尔坦。

影片参数
  1. Video
  2. ID                                       : 1
  3. Format                                   : AVC
  4. Format/Info                              : Advanced Video Codec
  5. Format profile                           : [email protected]
  6. Format settings                          : CABAC / 5 Ref Frames
  7. Format settings, CABAC                   : Yes
  8. Format settings, Reference frames        : 5 frames
  9. Codec ID                                 : V_MPEG4/ISO/AVC
  10. Duration                                 : 2 h 10 min
  11. Bit rate                                 : 14.6 Mb/s
  12. Width                                    : 1 920 pixels
  13. Height                                   : 804 pixels
  14. Display aspect ratio                     : 2.40:1
  15. Frame rate mode                          : Constant
  16. Frame rate                               : 23.976 (24000/1001) FPS
  17. Color space                              : YUV
  18. Chroma subsampling                       : 4:2:0
  19. Bit depth                                : 8 bits
  20. Scan type                                : Progressive
  21. Bits/(Pixel*Frame)                       : 0.394
  22. Stream size                              : 13.3 GiB (78%)
  23. Writing library                          : x264 core 164 r3103 941cae6
  24. Encoding settings                        : cabac=1 / ref=5 / deblock=1:-3:-3 / analyse=0x3:0x133 / me=umh / subme=9 / psy=1 / psy_rd=1.00:0.00 / mixed_ref=1 / me_range=16 / chroma_me=1 / trellis=2 / 8x8dct=1 / cqm=0 / deadzone=21,11 / fast_pskip=1 / chroma_qp_offset=-2 / threads=25 / lookahead_threads=2 / sliced_threads=0 / nr=0 / decimate=1 / interlaced=0 / bluray_compat=0 / constrained_intra=0 / bframes=3 / b_pyramid=2 / b_adapt=2 / b_bias=0 / direct=3 / weightb=1 / open_gop=0 / weightp=2 / keyint=250 / keyint_min=23 / scenecut=40 / intra_refresh=0 / rc_lookahead=60 / rc=crf / mbtree=1 / crf=16.0 / qcomp=0.60 / qpmin=0 / qpmax=69 / qpstep=4 / ip_ratio=1.40 / aq=1:1.00
  25. Default                                  : Yes
  26. Forced                                   : No
  27. Audio
  28. ID                                       : 2
  29. Format                                   : DTS XLL
  30. Format/Info                              : Digital Theater Systems
  31. Commercial name                          : DTS-HD Master Audio
  32. Codec ID                                 : A_DTS
  33. Duration                                 : 2 h 10 min
  34. Bit rate mode                            : Variable
  35. Bit rate                                 : 4 049 kb/s
  36. Channel(s)                               : 8 channels
  37. Channel layout                           : C L R LFE Lb Rb Lss Rss
  38. Sampling rate                            : 48.0 kHz
  39. Frame rate                               : 93.750 FPS (512 SPF)
  40. Bit depth                                : 24 bits
  41. Compression mode                         : Lossless
  42. Stream size                              : 3.70 GiB (22%)
  43. Language                                 : English
  44. Default                                  : Yes
  45. Forced                                   : No
  46. Text #1
  47. ID                                       : 3
  48. Format                                   : PGS
  49. Muxing mode                              : zlib
  50. Codec ID                                 : S_HDMV/PGS
  51. Codec ID/Info                            : Picture based subtitle format used on BDs/HD-DVDs
  52. Duration                                 : 2 h 3 min
  53. Bit rate                                 : 34.6 kb/s
  54. Count of elements                        : 2806
  55. Stream size                              : 30.6 MiB (0%)
  56. Title                                    : English SDH
  57. Language                                 : English
  58. Default                                  : No
  59. Forced                                   : No
  60. Text #2
  61. ID                                       : 4
  62. Format                                   : PGS
  63. Muxing mode                              : zlib
  64. Codec ID                                 : S_HDMV/PGS
  65. Codec ID/Info                            : Picture based subtitle format used on BDs/HD-DVDs
  66. Duration                                 : 2 h 10 min
  67. Bit rate                                 : 27.6 kb/s
  68. Count of elements                        : 2574
  69. Stream size                              : 25.7 MiB (0%)
  70. Title                                    : Spanish
  71. Language                                 : Spanish
  72. Default                                  : No
  73. Forced                                   : No
  74. Text #3
  75. ID                                       : 5
  76. Format                                   : PGS
  77. Muxing mode                              : zlib
  78. Codec ID                                 : S_HDMV/PGS
  79. Codec ID/Info                            : Picture based subtitle format used on BDs/HD-DVDs
  80. Duration                                 : 2 h 10 min
  81. Bit rate                                 : 28.8 kb/s
  82. Count of elements                        : 2590
  83. Stream size                              : 26.8 MiB (0%)
  84. Title                                    : French
  85. Language                                 : French
  86. Default                                  : No
  87. Forced                                   : No
  88. Menu
  89. 00:00:00.000                             : en:Chapter 01
  90. 00:06:10.078                             : en:Chapter 02
  91. 00:14:22.904                             : en:Chapter 03
  92. 00:19:00.097                             : en:Chapter 04
  93. 00:24:30.803                             : en:Chapter 05
  94. 00:29:42.322                             : en:Chapter 06
  95. 00:37:34.711                             : en:Chapter 07
  96. 00:42:06.482                             : en:Chapter 08
  97. 00:49:09.697                             : en:Chapter 09
  98. 00:58:53.864                             : en:Chapter 10
  99. 01:03:23.383                             : en:Chapter 11
  100. 01:10:23.010                             : en:Chapter 12
  101. 01:17:37.653                             : en:Chapter 13
  102. 01:22:19.476                             : en:Chapter 14
  103. 01:30:29.549                             : en:Chapter 15
  104. 01:37:20.918                             : en:Chapter 16
  105. 01:42:40.571                             : en:Chapter 17
  106. 01:49:57.508                             : en:Chapter 18
  107. 01:54:07.632                             : en:Chapter 19
  108. 02:03:23.146                             : en:Chapter 20
  109. 02:10:41.125                             : en:Chapter 21
复制代码

蒂尔.Till.2022.1080p.BluRay.x264-PiGNUS 17.05GB

蒂尔.Till.2022.1080p.BluRay.x264-PiGNUS 17.05GB



蓝光高清网提示您 点击下方附件即可下载

蒂尔.Till.2022.1080p.BluRay.x264-PiGNUS 17.05GB

Till.2022.1080p.BluRay.x264-PiGNUS.torrent ( 22.09 KB )

加入蓝光高清网VIP会员  无限制下载本站所有资源---点这里

资源下载、资源播放、字幕使用、无法下载等常见问题---点这里
回复

使用道具 举报

全部回复0 显示全部楼层

发表回复

您需要登录后才可以回帖 登录 | 立即注册

本版积分规则