本站已运行

蓝光高清网

搜索
开启左侧

[剧情] 画家的妻子.The.Artists.Wife.2019.1080p.BluRay.x264-PEGASUS 9.52GB

蓝鸟 发表于 2023-1-19 23:13:13 | 显示全部楼层 |阅读模式

画家的妻子.The.Artists.Wife.2019.1080p.BluRay.x264-PEGASUS 9.52GB

画家的妻子.The.Artists.Wife.2019.1080p.BluRay.x264-PEGASUS 9.52GB


标  题 画家的妻子
译  名 画家之妻 艺术家的妻子
片  名 The Artist''s Wife
年  代 2019
产  地 美国
类  别 剧情
语  言 英语
IMDb评分 5.9/10 (269人评价)
导  演 汤姆·杜比 Tom Dolby
编  剧 汤姆·杜比 Tom Dolby
演  员 阿万·乔贾 Avan Jogia
       布鲁斯·邓恩 Bruce Dern
       莉娜·奥琳 Lena Olin
       亚历山卓·巴格特 Alexandre Bagot
       克莱尔·露易丝·弗洛斯特 Clare Louise Frost

简  介

A drama about Claire Smythson, wife of a famous painter, who struggles to reunite her husband with his estranged daughter when he is diagnosed with dementia.

影片参数
  1. Video
  2. ID                                       : 1
  3. Format                                   : AVC
  4. Format/Info                              : Advanced Video Codec
  5. Format profile                           : [email protected]
  6. Format settings                          : CABAC / 5 Ref Frames
  7. Format settings, CABAC                   : Yes
  8. Format settings, Reference frames        : 5 frames
  9. Codec ID                                 : V_MPEG4/ISO/AVC
  10. Duration                                 : 1 h 36 min
  11. Bit rate                                 : 10.5 Mb/s
  12. Width                                    : 1 920 pixels
  13. Height                                   : 796 pixels
  14. Display aspect ratio                     : 2.40:1
  15. Frame rate mode                          : Constant
  16. Frame rate                               : 23.976 (24000/1001) FPS
  17. Color space                              : YUV
  18. Chroma subsampling                       : 4:2:0
  19. Bit depth                                : 8 bits
  20. Scan type                                : Progressive
  21. Bits/(Pixel*Frame)                       : 0.287
  22. Stream size                              : 7.05 GiB (74%)
  23. Writing library                          : x264 core 164 r3103 941cae6
  24. Encoding settings                        : cabac=1 / ref=5 / deblock=1:-3:-3 / analyse=0x3:0x133 / me=umh / subme=11 / psy=1 / psy_rd=1.02:0.00 / mixed_ref=1 / me_range=32 / chroma_me=1 / trellis=2 / 8x8dct=1 / cqm=0 / deadzone=21,11 / fast_pskip=0 / chroma_qp_offset=-2 / threads=25 / lookahead_threads=6 / sliced_threads=0 / nr=0 / decimate=0 / interlaced=0 / bluray_compat=0 / constrained_intra=0 / bframes=16 / b_pyramid=2 / b_adapt=2 / b_bias=0 / direct=3 / weightb=1 / open_gop=0 / weightp=2 / keyint=250 / keyint_min=23 / scenecut=40 / intra_refresh=0 / rc_lookahead=250 / rc=crf / mbtree=0 / crf=19.0 / qcomp=0.60 / qpmin=0 / qpmax=69 / qpstep=4 / vbv_maxrate=62500 / vbv_bufsize=78125 / crf_max=0.0 / nal_hrd=none / filler=0 / ip_ratio=1.30 / pb_ratio=1.20 / aq=3:0.80
  25. Default                                  : Yes
  26. Forced                                   : No
  27. Color range                              : Limited
  28. Color primaries                          : BT.709
  29. Matrix coefficients                      : BT.709
  30. Audio #1
  31. ID                                       : 2
  32. Format                                   : MLP FBA 16-ch
  33. Format/Info                              : Meridian Lossless Packing FBA with 16-channel presentation
  34. Commercial name                          : Dolby TrueHD with Dolby Atmos
  35. Codec ID                                 : A_TRUEHD
  36. Duration                                 : 1 h 36 min
  37. Bit rate mode                            : Variable
  38. Bit rate                                 : 2 877 kb/s
  39. Maximum bit rate                         : 4 470 kb/s
  40. Channel(s)                               : 8 channels
  41. Channel layout                           : L R C LFE Ls Rs Lb Rb
  42. Sampling rate                            : 48.0 kHz
  43. Frame rate                               : 1 200.000 FPS (40 SPF)
  44. Compression mode                         : Lossless
  45. Stream size                              : 1.93 GiB (20%)
  46. Language                                 : English
  47. Default                                  : Yes
  48. Forced                                   : No
  49. Number of dynamic objects                : 11
  50. Bed channel count                        : 1 channel
  51. Bed channel configuration                : LFE
  52. Audio #2
  53. ID                                       : 3
  54. Format                                   : AC-3
  55. Format/Info                              : Audio Coding 3
  56. Commercial name                          : Dolby Digital
  57. Codec ID                                 : A_AC3
  58. Duration                                 : 1 h 36 min
  59. Bit rate mode                            : Constant
  60. Bit rate                                 : 640 kb/s
  61. Channel(s)                               : 6 channels
  62. Channel layout                           : L R C LFE Ls Rs
  63. Sampling rate                            : 48.0 kHz
  64. Frame rate                               : 31.250 FPS (1536 SPF)
  65. Compression mode                         : Lossy
  66. Stream size                              : 440 MiB (5%)
  67. Language                                 : English
  68. Service kind                             : Complete Main
  69. Default                                  : No
  70. Forced                                   : No
  71. Audio #3
  72. ID                                       : 4
  73. Format                                   : AAC LC
  74. Format/Info                              : Advanced Audio Codec Low Complexity
  75. Codec ID                                 : A_AAC-2
  76. Duration                                 : 1 h 36 min
  77. Bit rate                                 : 77.1 kb/s
  78. Channel(s)                               : 2 channels
  79. Channel layout                           : L R
  80. Sampling rate                            : 48.0 kHz
  81. Frame rate                               : 46.875 FPS (1024 SPF)
  82. Compression mode                         : Lossy
  83. Stream size                              : 53.0 MiB (1%)
  84. Title                                    : Commentary by director Tom Dolby
  85. Language                                 : English
  86. Default                                  : No
  87. Forced                                   : No
  88. Text
  89. ID                                       : 5
  90. Format                                   : PGS
  91. Muxing mode                              : zlib
  92. Codec ID                                 : S_HDMV/PGS
  93. Codec ID/Info                            : Picture based subtitle format used on BDs/HD-DVDs
  94. Duration                                 : 1 h 34 min
  95. Bit rate                                 : 24.1 kb/s
  96. Count of elements                        : 2954
  97. Stream size                              : 16.2 MiB (0%)
  98. Language                                 : English
  99. Default                                  : No
  100. Forced                                   : No
  101. Menu
  102. 00:00:00.000                             : :Chapter 01
  103. 00:05:42.342                             : :Chapter 02
  104. 00:11:49.751                             : :Chapter 03
  105. 00:18:00.830                             : :Chapter 04
  106. 00:24:53.992                             : :Chapter 05
  107. 00:30:45.761                             : :Chapter 06
  108. 00:35:16.072                             : :Chapter 07
  109. 00:42:07.316                             : :Chapter 08
  110. 00:46:38.504                             : :Chapter 09
  111. 00:54:15.210                             : :Chapter 10
  112. 01:00:50.438                             : :Chapter 11
  113. 01:05:48.945                             : :Chapter 12
  114. 01:11:21.652                             : :Chapter 13
  115. 01:18:41.425                             : :Chapter 14
  116. 01:23:50.651                             : :Chapter 15
  117. 01:30:47.233                             : :Chapter 16
复制代码

画家的妻子.The.Artists.Wife.2019.1080p.BluRay.x264-PEGASUS 9.52GB

画家的妻子.The.Artists.Wife.2019.1080p.BluRay.x264-PEGASUS 9.52GB



蓝光高清网提示您 点击下方附件即可下载

画家的妻子.The.Artists.Wife.2019.1080p.BluRay.x264-PEGASUS 9.52GB

The.Artists.Wife.2019.1080p.BluRay.x264-PEGASUS.torrent ( 24.54 KB )

加入蓝光高清网VIP会员  无限制下载本站所有资源---点这里

资源下载、资源播放、字幕使用、无法下载等常见问题---点这里
回复

使用道具 举报

全部回复0 显示全部楼层

发表回复

您需要登录后才可以回帖 登录 | 立即注册

本版积分规则