本站已运行

蓝光高清网

搜索
开启左侧

[喜剧] 旋转人生.Spin.Me.Round.2022.1080p.BluRay.x264-PiGNUS 11.31GB

蓝鸟 发表于 2023-1-19 23:13:40 | 显示全部楼层 |阅读模式

旋转人生.Spin.Me.Round.2022.1080p.BluRay.x264-PiGNUS 11.31GB

旋转人生.Spin.Me.Round.2022.1080p.BluRay.x264-PiGNUS 11.31GB


标  题 旋转人生
译  名 团团转
片  名 Spin Me Round
年  代 2022
产  地 美国
类  别 喜剧
上映日期 2022-03-12(西南偏南电影节) / 2022-08-19(美国)
IMDb评分 5.8/10 (78人评价)
片  长 104分钟
导  演 杰夫·拜纳 Jeff Baena
编  剧 杰夫·拜纳 Jeff Baena
       爱丽森·布里 Alison Brie
演  员 爱丽森·布里 Alison Brie
       奥布瑞·普拉扎 Aubrey Plaza
       亚历桑德罗·尼沃拉 Alessandro Nivola
       莫莉·香侬 Molly Shannon
       里尔·莱尔·哈瓦瑞 Lil Rel Howery
       本·辛克莱尔 Ben Sinclair
       弗莱德·阿米森 Fred Armisen
       杰克·皮克金 Jake Picking
       蒂姆·海德克 Tim Heidecker
       贝丝·摩根 Beth Morgan

简  介

该片讲述意大利连锁餐厅Tuscan Grove位于加州贝克斯菲尔德的加盟店经理艾梅柏(布里饰),赢得了一个前往该公司位于佛罗伦萨郊外的华丽的“研究所”的全额费用旅行的机会,同时还可以与连锁餐厅的老板(尼沃拉饰)见面。当艾梅柏与一群不相配的美国当地加盟店的经理们在一起时,这场旅行与自己想象中的浪漫之旅完全不一样。

影片参数
  1. Video
  2. ID                                       : 1
  3. Format                                   : AVC
  4. Format/Info                              : Advanced Video Codec
  5. Format profile                           : [email protected]
  6. Format settings                          : CABAC / 4 Ref Frames
  7. Format settings, CABAC                   : Yes
  8. Format settings, Reference frames        : 4 frames
  9. Codec ID                                 : V_MPEG4/ISO/AVC
  10. Duration                                 : 1 h 44 min
  11. Bit rate                                 : 11.8 Mb/s
  12. Width                                    : 1 920 pixels
  13. Height                                   : 1 036 pixels
  14. Display aspect ratio                     : 1.85:1
  15. Frame rate mode                          : Constant
  16. Frame rate                               : 23.976 (24000/1001) FPS
  17. Color space                              : YUV
  18. Chroma subsampling                       : 4:2:0
  19. Bit depth                                : 8 bits
  20. Scan type                                : Progressive
  21. Bits/(Pixel*Frame)                       : 0.247
  22. Stream size                              : 8.56 GiB (76%)
  23. Writing library                          : x264 core 164 r3103 941cae6
  24. Encoding settings                        : cabac=1 / ref=4 / deblock=1:-3:-3 / analyse=0x3:0x133 / me=umh / subme=9 / psy=1 / psy_rd=1.00:0.00 / mixed_ref=1 / me_range=16 / chroma_me=1 / trellis=2 / 8x8dct=1 / cqm=0 / deadzone=21,11 / fast_pskip=1 / chroma_qp_offset=-2 / threads=24 / lookahead_threads=2 / sliced_threads=0 / nr=0 / decimate=1 / interlaced=0 / bluray_compat=0 / constrained_intra=0 / bframes=3 / b_pyramid=2 / b_adapt=2 / b_bias=0 / direct=3 / weightb=1 / open_gop=0 / weightp=2 / keyint=250 / keyint_min=23 / scenecut=40 / intra_refresh=0 / rc_lookahead=60 / rc=crf / mbtree=1 / crf=18.7 / qcomp=0.60 / qpmin=0 / qpmax=69 / qpstep=4 / ip_ratio=1.40 / aq=1:1.00
  25. Default                                  : Yes
  26. Forced                                   : No
  27. Audio
  28. ID                                       : 2
  29. Format                                   : DTS XLL
  30. Format/Info                              : Digital Theater Systems
  31. Commercial name                          : DTS-HD Master Audio
  32. Codec ID                                 : A_DTS
  33. Duration                                 : 1 h 44 min
  34. Bit rate mode                            : Variable
  35. Bit rate                                 : 3 764 kb/s
  36. Channel(s)                               : 6 channels
  37. Channel layout                           : C L R Ls Rs LFE
  38. Sampling rate                            : 48.0 kHz
  39. Frame rate                               : 93.750 FPS (512 SPF)
  40. Bit depth                                : 24 bits
  41. Compression mode                         : Lossless
  42. Stream size                              : 2.73 GiB (24%)
  43. Language                                 : English
  44. Default                                  : Yes
  45. Forced                                   : No
  46. Text
  47. ID                                       : 3
  48. Format                                   : PGS
  49. Muxing mode                              : zlib
  50. Codec ID                                 : S_HDMV/PGS
  51. Codec ID/Info                            : Picture based subtitle format used on BDs/HD-DVDs
  52. Duration                                 : 1 h 43 min
  53. Bit rate                                 : 33.8 kb/s
  54. Count of elements                        : 4496
  55. Stream size                              : 25.0 MiB (0%)
  56. Title                                    : English SDH
  57. Language                                 : English
  58. Default                                  : No
  59. Forced                                   : No
  60. Menu
  61. 00:00:00.000                             : en:Chapter 01
  62. 00:15:53.202                             : en:Chapter 02
  63. 00:30:05.762                             : en:Chapter 03
  64. 00:43:58.928                             : en:Chapter 04
  65. 00:54:55.751                             : en:Chapter 05
  66. 01:07:21.996                             : en:Chapter 06
  67. 01:22:59.892                             : en:Chapter 07
  68. 01:40:38.491                             : en:Chapter 08
  69. 01:44:00.818                             : en:Chapter 09
复制代码

旋转人生.Spin.Me.Round.2022.1080p.BluRay.x264-PiGNUS 11.31GB

旋转人生.Spin.Me.Round.2022.1080p.BluRay.x264-PiGNUS 11.31GB



蓝光高清网提示您 点击下方附件即可下载

旋转人生.Spin.Me.Round.2022.1080p.BluRay.x264-PiGNUS 11.31GB

Spin.Me.Round.2022.1080p.BluRay.x264-PiGNUS.torrent ( 14.93 KB )

加入蓝光高清网VIP会员  无限制下载本站所有资源---点这里

资源下载、资源播放、字幕使用、无法下载等常见问题---点这里
回复

使用道具 举报

全部回复0 显示全部楼层

发表回复

您需要登录后才可以回帖 登录 | 立即注册

本版积分规则