本站已运行

蓝光高清网

搜索
开启左侧

[惊悚] 昨日世界.The.World.of.Yesterday.2022.1080p.BluRay.x264-JustWatch 11.11GB

蓝鸟 发表于 2023-1-19 23:15:24 | 显示全部楼层 |阅读模式

昨日世界.The.World.of.Yesterday.2022.1080p.BluRay.x264-JustWatch 11.11GB

昨日世界.The.World.of.Yesterday.2022.1080p.BluRay.x264-JustWatch 11.11GB


标  题 昨日世界
片  名 Le Monde d’hier
年  代 2022
产  地 法国
类  别 惊悚
语  言 法语
上映日期 2022-03-30(法国)
IMDb评分 5.2/10 (259人评价)
片  长 89分钟
导  演 裂面 Diastème
编  剧 裂面 Diastème
演  员 蕾雅·德吕盖 Léa Drucker
       奥尔本·勒努瓦 Alban Lenoir
       德尼·波达利德斯 Denis Podalydès

简  介

The story homes in on Isabelle de Raincy who beat her far-right rival to be elected President of the Republic five years earlier. At the end of her first term, just three days before the first round of elections, she learns from her Secretary General Franz L’Herbier that the far-right candidate is leading the polls. They have three days to manoeuvre within the corridors of power in a bid to change the course of history…

影片参数
  1. Video
  2. ID                                       : 1
  3. Format                                   : AVC
  4. Format/Info                              : Advanced Video Codec
  5. Format profile                           : [email protected]
  6. Format settings                          : CABAC / 5 Ref Frames
  7. Format settings, CABAC                   : Yes
  8. Format settings, Reference frames        : 5 frames
  9. Codec ID                                 : V_MPEG4/ISO/AVC
  10. Duration                                 : 1 h 29 min
  11. Bit rate                                 : 15.6 Mb/s
  12. Width                                    : 1 920 pixels
  13. Height                                   : 804 pixels
  14. Display aspect ratio                     : 2.40:1
  15. Frame rate mode                          : Constant
  16. Frame rate                               : 24.000 FPS
  17. Color space                              : YUV
  18. Chroma subsampling                       : 4:2:0
  19. Bit depth                                : 8 bits
  20. Scan type                                : Progressive
  21. Bits/(Pixel*Frame)                       : 0.420
  22. Stream size                              : 9.69 GiB (87%)
  23. Writing library                          : x264 core 164 r3101 b093bbe
  24. Encoding settings                        : cabac=1 / ref=5 / deblock=1:-3:-3 / analyse=0x3:0x133 / me=umh / subme=9 / psy=1 / psy_rd=1.00:0.00 / mixed_ref=1 / me_range=16 / chroma_me=1 / trellis=2 / 8x8dct=1 / cqm=0 / deadzone=21,11 / fast_pskip=0 / chroma_qp_offset=-2 / threads=9 / lookahead_threads=1 / sliced_threads=0 / nr=0 / decimate=0 / interlaced=0 / bluray_compat=0 / constrained_intra=0 / bframes=3 / b_pyramid=2 / b_adapt=2 / b_bias=0 / direct=3 / weightb=1 / open_gop=0 / weightp=2 / keyint=250 / keyint_min=24 / scenecut=40 / intra_refresh=0 / rc=crf / mbtree=0 / crf=17.0 / qcomp=0.60 / qpmin=0 / qpmax=69 / qpstep=4 / ip_ratio=1.40 / pb_ratio=1.30 / aq=3:1.00
  25. Language                                 : English
  26. Default                                  : Yes
  27. Forced                                   : No
  28. Color range                              : Limited
  29. Matrix coefficients                      : BT.709
  30. Audio
  31. ID                                       : 2
  32. Format                                   : DTS XLL
  33. Format/Info                              : Digital Theater Systems
  34. Commercial name                          : DTS-HD Master Audio
  35. Codec ID                                 : A_DTS
  36. Duration                                 : 1 h 29 min
  37. Bit rate mode                            : Variable
  38. Bit rate                                 : 2 253 kb/s
  39. Channel(s)                               : 6 channels
  40. Channel layout                           : C L R Ls Rs LFE
  41. Sampling rate                            : 48.0 kHz
  42. Frame rate                               : 93.750 FPS (512 SPF)
  43. Bit depth                                : 16 bits
  44. Compression mode                         : Lossless
  45. Stream size                              : 1.40 GiB (13%)
  46. Language                                 : French
  47. Default                                  : Yes
  48. Forced                                   : No
  49. Text #1
  50. ID                                       : 3
  51. Format                                   : UTF-8
  52. Codec ID                                 : S_TEXT/UTF8
  53. Codec ID/Info                            : UTF-8 Plain Text
  54. Duration                                 : 1 h 25 min
  55. Bit rate                                 : 39 b/s
  56. Count of elements                        : 791
  57. Stream size                              : 25.0 KiB (0%)
  58. Language                                 : English
  59. Default                                  : Yes
  60. Forced                                   : Yes
  61. Text #2
  62. ID                                       : 4
  63. Format                                   : PGS
  64. Muxing mode                              : zlib
  65. Codec ID                                 : S_HDMV/PGS
  66. Codec ID/Info                            : Picture based subtitle format used on BDs/HD-DVDs
  67. Duration                                 : 1 h 25 min
  68. Bit rate                                 : 20.4 kb/s
  69. Count of elements                        : 1582
  70. Stream size                              : 12.5 MiB (0%)
  71. Language                                 : English
  72. Default                                  : No
  73. Forced                                   : No
  74. Text #3
  75. ID                                       : 5
  76. Format                                   : PGS
  77. Muxing mode                              : zlib
  78. Codec ID                                 : S_HDMV/PGS
  79. Codec ID/Info                            : Picture based subtitle format used on BDs/HD-DVDs
  80. Duration                                 : 1 h 25 min
  81. Bit rate                                 : 21.7 kb/s
  82. Count of elements                        : 1758
  83. Stream size                              : 13.3 MiB (0%)
  84. Language                                 : French
  85. Default                                  : No
  86. Forced                                   : No
  87. Text #4
  88. ID                                       : 6
  89. Format                                   : PGS
  90. Muxing mode                              : zlib
  91. Codec ID                                 : S_HDMV/PGS
  92. Codec ID/Info                            : Picture based subtitle format used on BDs/HD-DVDs
  93. Duration                                 : 2 min 33 s
  94. Bit rate                                 : 38.4 kb/s
  95. Count of elements                        : 68
  96. Stream size                              : 720 KiB (0%)
  97. Language                                 : French
  98. Default                                  : No
  99. Forced                                   : No
  100. Menu
  101. 00:00:00.000                             : en:Chapter 01
  102. 00:09:33.375                             : en:Chapter 02
  103. 00:15:39.708                             : en:Chapter 03
  104. 00:25:19.458                             : en:Chapter 04
  105. 00:29:02.083                             : en:Chapter 05
  106. 00:34:43.917                             : en:Chapter 06
  107. 00:42:25.083                             : en:Chapter 07
  108. 00:49:49.667                             : en:Chapter 08
  109. 00:57:06.708                             : en:Chapter 09
  110. 01:03:56.417                             : en:Chapter 10
  111. 01:12:23.792                             : en:Chapter 11
  112. 01:18:46.375                             : en:Chapter 12
复制代码

昨日世界.The.World.of.Yesterday.2022.1080p.BluRay.x264-JustWatch 11.11GB

昨日世界.The.World.of.Yesterday.2022.1080p.BluRay.x264-JustWatch 11.11GB



蓝光高清网提示您 点击下方附件即可下载

昨日世界.The.World.of.Yesterday.2022.1080p.BluRay.x264-JustWatch 11.11GB

The.World.of.Yesterday.2022.1080p.BluRay.x264-JustWatch.torrent ( 14.64 KB )

加入蓝光高清网VIP会员  无限制下载本站所有资源---点这里

资源下载、资源播放、字幕使用、无法下载等常见问题---点这里
回复

使用道具 举报

全部回复0 显示全部楼层

发表回复

您需要登录后才可以回帖 登录 | 立即注册

本版积分规则