本站已运行

蓝光高清网

搜索
开启左侧

Vizinhos/我的麻烦邻居4k.Fenced.In.2022.PORTUGUESE.2160p.NF.WEB-DL.x265.10bit.SDR.DDP5.1.Atmos-电影下载

蓝鸟 发表于 2023-1-22 22:15:48 | 显示全部楼层 |阅读模式
我的麻烦邻居 豆瓣评分: 4.5分
上映时间:2022年        影片时长:110分钟
类型:喜剧 奇幻 悬疑 
地区:其他 
导演:罗伯特·桑杜奇
主演:Marlei Cevada / Nando Cunha / Hélio de la Peña
画质标准:4K SDR  封装音轨:Dolby TrueHD 5.1 
简       介


  一次精神崩溃后,沃尔特离开城市来到乡下。然而,在遇到吵闹的新邻居后,他平静度日的希望彻底破灭。


影片参数
Vizinhos/我的麻烦邻居4k.Fenced.In.2022.PORTUGUESE.2160p.NF.WEB-DL.x265.10bit.SDR.DDP5.1.Atmos-电影信息
Video
ID : 1
Format : HEVC
Format/Info : High Efficiency Video Coding
Format profile : Main 10@L5@Main
Codec ID : V_MPEGH/ISO/HEVC
Duration : 1 h 50 min
Bit rate : 16.0 Mb/s
Width : 3 840 pixels
Height : 2 160 pixels
Display aspect ratio : 16:9
Frame rate mode : Constant
Frame rate : 24.000 FPS
Color space : YUV
Chroma subsampling : 4:2:0
Bit depth : 10 bits
Bits/(Pixel*Frame) : 0.081
Stream size : 12.4 GiB (95%)
Default : Yes
Forced : No
Color range : Limited
Color primaries : BT.709
Transfer characteristics : BT.709
Matrix coefficients : BT.709


Audio
ID : 2
Format : E-AC-3 JOC
Format/Info : Enhanced AC-3 with Joint Object Coding
Commercial name : Dolby Digital Plus with Dolby Atmos
Codec ID : A_EAC3
Duration : 1 h 50 min
Bit rate mode : Constant
Bit rate : 768 kb/s
Channel(s) : 6 channels
Channel layout : L R C LFE Ls Rs
Sampling rate : 48.0 kHz
Frame rate : 31.250 FPS (1536 SPF)
Compression mode : Lossy
Stream size : 608 MiB (5%)
Title : Brazilian Portuguese
Language : Portuguese
Service kind : Complete Main
Default : No
Forced : No
Complexity index : 16
Number of dynamic objects : 15
Bed channel count : 1 channel
Bed channel configuration : LFE


Text #1
ID : 3
Format : UTF-8
Codec ID : S_TEXT/UTF8
Codec ID/Info : UTF-8 Plain Text
Duration : 1 h 49 min
Bit rate : 80 b/s
Frame rate : 0.294 FPS
Count of elements : 1933
Stream size : 64.6 KiB (0%)
Title : Chinese Simplified
Language : Chinese
Default : No
Forced : No


Text #2
ID : 4
Format : UTF-8
Codec ID : S_TEXT/UTF8
Codec ID/Info : UTF-8 Plain Text
Duration : 1 h 49 min
Bit rate : 103 b/s
Frame rate : 0.348 FPS
Count of elements : 2291
Stream size : 83.1 KiB (0%)
Title : English [SDH]
Language : English
Default : No
Forced : No


Text #3
ID : 5
Format : UTF-8
Codec ID : S_TEXT/UTF8
Codec ID/Info : UTF-8 Plain Text
Duration : 1 h 49 min
Bit rate : 90 b/s
Frame rate : 0.310 FPS
Count of elements : 2033
Stream size : 72.0 KiB (0%)
Title : English
Language : English
Default : No
Forced : No


Text #4
ID : 6
Format : UTF-8
Codec ID : S_TEXT/UTF8
Codec ID/Info : UTF-8 Plain Text
Duration : 1 h 49 min
Bit rate : 74 b/s
Frame rate : 0.271 FPS
Count of elements : 1780
Stream size : 59.6 KiB (0%)
Title : German
Language : German
Default : No
Forced : No


Text #5
ID : 7
Format : UTF-8
Codec ID : S_TEXT/UTF8
Codec ID/Info : UTF-8 Plain Text
Duration : 1 h 49 min
Bit rate : 75 b/s
Frame rate : 0.298 FPS
Count of elements : 1962
Stream size : 60.5 KiB (0%)
Title : Japanese
Language : Japanese
Default : No
Forced : No


蓝光高清网提示您 点击下方附件名称 即可开始下载


多版本下载时请注意区分


Vizinhos/我的麻烦邻居4k.Fenced.In.2022.PORTUGUESE.2160p.NF.WEB-DL.x265.10bit.SDR.DDP5.1.Atmos-电影下载

我的麻烦邻居4k.Fenced.In.2022.PORTUGUESE.2160p.NF.WEB-DL.x265.10bit.SDR.DDP5.1.Atmos-中字【13.00 GB】

我的麻烦邻居4k.Fenced.In.2022.PORTUGUESE.2160p.NF.WEB-DL.x265.10bit.SDR.DDP5.1.Atmos-HHWEB.torrent ( 16.9 KB )



我的麻烦邻居4k.Fenced.In.2022.PORTUGUESE.2160p.NF.WEB-DL.x265.10bit.HDR.DDP5.1.Atmos-中字【12.63 GB】

我的麻烦邻居4k.Fenced.In.2022.PORTUGUESE.2160p.NF.WEB-DL.x265.10bit.HDR.DDP5.1.Atmos-HHWEB.torrent ( 16.45 KB )



我的麻烦邻居4k.Fenced.In.2022.PORTUGUESE.2160p.NF.WEB-DL.DDP5.1.Atmos.DV.MP4.x265-中字【杜比视界】【13.03 GB】

我的麻烦邻居4k.Fenced.In.2022.PORTUGUESE.2160p.NF.WEB-DL.DDP5.1.Atmos.DV.MP4.x265-DVSUX.torrent ( 16.95 KB )



我的麻烦邻居4k.Fenced.In.2022.PORTUGUESE.2160p.NF.WEB-DL.DDP5.1.Atmos.DV.MKV.x265-中字【杜比视界】【13.03 GB】

我的麻烦邻居4k.Fenced.In.2022.PORTUGUESE.2160p.NF.WEB-DL.DDP5.1.Atmos.DV.MKV.x265-HHWEB.torrent ( 16.93 KB )



加入蓝光高清网VIP会员  无限制下载本站所有资源---点这里

资源下载、资源播放、字幕使用、无法下载等常见问题---点这里
回复

使用道具 举报

全部回复1 显示全部楼层
1080i 发表于 7 天前 | 显示全部楼层
T.h.a.n.k.s
回复

使用道具 举报

发表回复

您需要登录后才可以回帖 登录 | 立即注册

本版积分规则